  0
SECTION
  2
HEADER
  9
$ACADVER
  1
AC1015
  9
$ACADMAINTVER
 70
    13
  9
$DWGCODEPAGE
  3
ANSI_1252
  9
$INSBASE
 10
0.0
 20
0.0
 30
0.0
  9
$EXTMIN
 10
1.000000000000000E+20
 20
1.000000000000000E+20
 30
1.000000000000000E+20
  9
$EXTMAX
 10
-1.000000000000000E+20
 20
-1.000000000000000E+20
 30
-1.000000000000000E+20
  9
$LIMMIN
 10
0.0
 20
0.0
  9
$LIMMAX
 10
12.0
 20
9.0
  9
$ORTHOMODE
 70
     0
  9
$REGENMODE
 70
     1
  9
$FILLMODE
 70
     1
  9
$QTEXTMODE
 70
     0
  9
$MIRRTEXT
 70
     1
  9
$LTSCALE
 40
0.3
  9
$ATTMODE
 70
     1
  9
$TEXTSIZE
 40
0.2
  9
$TRACEWID
 40
0.05
  9
$TEXTSTYLE
  7
STANDARD
  9
$CLAYER
  8
0
  9
$CELTYPE
  6
ByLayer
  9
$CECOLOR
 62
   256
  9
$CELTSCALE
 40
1.0
  9
$DISPSILH
 70
     0
  9
$DIMSCALE
 40
1.0
  9
$DIMASZ
 40
0.125
  9
$DIMEXO
 40
0.0625
  9
$DIMDLI
 40
0.38
  9
$DIMRND
 40
0.0
  9
$DIMDLE
 40
0.0
  9
$DIMEXE
 40
0.18
  9
$DIMTP
 40
0.0
  9
$DIMTM
 40
0.0
  9
$DIMTXT
 40
0.1
  9
$DIMCEN
 40
0.09
  9
$DIMTSZ
 40
0.0
  9
$DIMTOL
 70
     0
  9
$DIMLIM
 70
     0
  9
$DIMTIH
 70
     1
  9
$DIMTOH
 70
     1
  9
$DIMSE1
 70
     0
  9
$DIMSE2
 70
     0
  9
$DIMTAD
 70
     0
  9
$DIMZIN
 70
     0
  9
$DIMBLK
  1

  9
$DIMASO
 70
     1
  9
$DIMSHO
 70
     1
  9
$DIMPOST
  1

  9
$DIMAPOST
  1

  9
$DIMALT
 70
     0
  9
$DIMALTD
 70
     2
  9
$DIMALTF
 40
25.4
  9
$DIMLFAC
 40
1.0
  9
$DIMTOFL
 70
     0
  9
$DIMTVP
 40
0.0
  9
$DIMTIX
 70
     0
  9
$DIMSOXD
 70
     0
  9
$DIMSAH
 70
     0
  9
$DIMBLK1
  1

  9
$DIMBLK2
  1

  9
$DIMSTYLE
  2
STANDARD
  9
$DIMCLRD
 70
     0
  9
$DIMCLRE
 70
     0
  9
$DIMCLRT
 70
     0
  9
$DIMTFAC
 40
1.0
  9
$DIMGAP
 40
0.09
  9
$DIMJUST
 70
     0
  9
$DIMSD1
 70
     0
  9
$DIMSD2
 70
     0
  9
$DIMTOLJ
 70
     1
  9
$DIMTZIN
 70
     0
  9
$DIMALTZ
 70
     0
  9
$DIMALTTZ
 70
     0
  9
$DIMUPT
 70
     0
  9
$DIMDEC
 70
     4
  9
$DIMTDEC
 70
     4
  9
$DIMALTU
 70
     2
  9
$DIMALTTD
 70
     2
  9
$DIMTXSTY
  7
STANDARD
  9
$DIMAUNIT
 70
     0
  9
$DIMADEC
 70
     0
  9
$DIMALTRND
 40
0.0
  9
$DIMAZIN
 70
     0
  9
$DIMDSEP
 70
    46
  9
$DIMATFIT
 70
     3
  9
$DIMFRAC
 70
     0
  9
$DIMLDRBLK
  1

  9
$DIMLUNIT
 70
     2
  9
$DIMLWD
 70
    -2
  9
$DIMLWE
 70
    -2
  9
$DIMTMOVE
 70
     0
  9
$LUNITS
 70
     2
  9
$LUPREC
 70
     4
  9
$SKETCHINC
 40
0.1
  9
$FILLETRAD
 40
0.5
  9
$AUNITS
 70
     0
  9
$AUPREC
 70
     0
  9
$MENU
  1
.
  9
$ELEVATION
 40
0.0
  9
$PELEVATION
 40
0.0
  9
$THICKNESS
 40
0.0
  9
$LIMCHECK
 70
     0
  9
$CHAMFERA
 40
0.5
  9
$CHAMFERB
 40
0.5
  9
$CHAMFERC
 40
0.0
  9
$CHAMFERD
 40
0.0
  9
$SKPOLY
 70
     0
  9
$TDCREATE
 40
2453845.843558298
  9
$TDUCREATE
 40
2453846.010224965
  9
$TDUPDATE
 40
2455398.187144479
  9
$TDUUPDATE
 40
2455398.353811145
  9
$TDINDWG
 40
0.0569482176
  9
$TDUSRTIMER
 40
0.0569382755
  9
$USRTIMER
 70
     1
  9
$ANGBASE
 50
0.0
  9
$ANGDIR
 70
     0
  9
$PDMODE
 70
     0
  9
$PDSIZE
 40
0.0
  9
$PLINEWID
 40
0.0
  9
$SPLFRAME
 70
     0
  9
$SPLINETYPE
 70
     6
  9
$SPLINESEGS
 70
     8
  9
$HANDSEED
  5
498
  9
$SURFTAB1
 70
     6
  9
$SURFTAB2
 70
     6
  9
$SURFTYPE
 70
     6
  9
$SURFU
 70
     6
  9
$SURFV
 70
     6
  9
$UCSBASE
  2

  9
$UCSNAME
  2

  9
$UCSORG
 10
0.0
 20
0.0
 30
0.0
  9
$UCSXDIR
 10
1.0
 20
0.0
 30
0.0
  9
$UCSYDIR
 10
0.0
 20
1.0
 30
0.0
  9
$UCSORTHOREF
  2

  9
$UCSORTHOVIEW
 70
     0
  9
$UCSORGTOP
 10
0.0
 20
0.0
 30
0.0
  9
$UCSORGBOTTOM
 10
0.0
 20
0.0
 30
0.0
  9
$UCSORGLEFT
 10
0.0
 20
0.0
 30
0.0
  9
$UCSORGRIGHT
 10
0.0
 20
0.0
 30
0.0
  9
$UCSORGFRONT
 10
0.0
 20
0.0
 30
0.0
  9
$UCSORGBACK
 10
0.0
 20
0.0
 30
0.0
  9
$PUCSBASE
  2

  9
$PUCSNAME
  2

  9
$PUCSORG
 10
0.0
 20
0.0
 30
0.0
  9
$PUCSXDIR
 10
1.0
 20
0.0
 30
0.0
  9
$PUCSYDIR
 10
0.0
 20
1.0
 30
0.0
  9
$PUCSORTHOREF
  2

  9
$PUCSORTHOVIEW
 70
     0
  9
$PUCSORGTOP
 10
0.0
 20
0.0
 30
0.0
  9
$PUCSORGBOTTOM
 10
0.0
 20
0.0
 30
0.0
  9
$PUCSORGLEFT
 10
0.0
 20
0.0
 30
0.0
  9
$PUCSORGRIGHT
 10
0.0
 20
0.0
 30
0.0
  9
$PUCSORGFRONT
 10
0.0
 20
0.0
 30
0.0
  9
$PUCSORGBACK
 10
0.0
 20
0.0
 30
0.0
  9
$USERI1
 70
     0
  9
$USERI2
 70
     0
  9
$USERI3
 70
     0
  9
$USERI4
 70
     0
  9
$USERI5
 70
     0
  9
$USERR1
 40
0.0
  9
$USERR2
 40
0.0
  9
$USERR3
 40
0.0
  9
$USERR4
 40
0.0
  9
$USERR5
 40
0.0
  9
$WORLDVIEW
 70
     1
  9
$SHADEDGE
 70
     3
  9
$SHADEDIF
 70
    70
  9
$TILEMODE
 70
     0
  9
$MAXACTVP
 70
    64
  9
$PINSBASE
 10
0.0
 20
0.0
 30
0.0
  9
$PLIMCHECK
 70
     0
  9
$PEXTMIN
 10
0.1566472288940623
 20
0.1581726265653849
 30
-0.0015258207003583
  9
$PEXTMAX
 10
13.10996053147913
 20
7.732635301982057
 30
0.0000000349246037
  9
$PLIMMIN
 10
0.0166943238261208
 20
0.018219606041867
  9
$PLIMMAX
 10
10.42446844859076
 20
8.060590468960304
  9
$UNITMODE
 70
     0
  9
$VISRETAIN
 70
     1
  9
$PLINEGEN
 70
     0
  9
$PSLTSCALE
 70
     0
  9
$TREEDEPTH
 70
  3020
  9
$CMLSTYLE
  2
Standard
  9
$CMLJUST
 70
     0
  9
$CMLSCALE
 40
1.0
  9
$PROXYGRAPHICS
 70
     1
  9
$MEASUREMENT
 70
     0
  9
$CELWEIGHT
370
    -1
  9
$ENDCAPS
280
     0
  9
$JOINSTYLE
280
     0
  9
$LWDISPLAY
290
     0
  9
$INSUNITS
 70
     0
  9
$HYPERLINKBASE
  1

  9
$STYLESHEET
  1

  9
$XEDIT
290
     1
  9
$CEPSNTYPE
380
     0
  9
$PSTYLEMODE
290
     1
  9
$FINGERPRINTGUID
  2
{92555CE9-3F81-452D-B8BC-997BAA6C0933}
  9
$VERSIONGUID
  2
{27FC4C90-F060-4E1E-9FBD-EF347B8921F3}
  9
$EXTNAMES
290
     1
  9
$PSVPSCALE
 40
0.0
  9
$OLESTARTUP
290
     0
  0
ENDSEC
  0
SECTION
  2
CLASSES
  0
CLASS
  1
ACDBDICTIONARYWDFLT
  2
AcDbDictionaryWithDefault
  3
AutoCAD 2000
 90
        0
280
     0
281
     0
  0
CLASS
  1
ACDBPLACEHOLDER
  2
AcDbPlaceHolder
  3
AutoCAD 2000
 90
        0
280
     0
281
     0
  0
CLASS
  1
LAYOUT
  2
AcDbLayout
  3
AutoCAD 2000
 90
        0
280
     0
281
     0
  0
CLASS
  1
DICTIONARYVAR
  2
AcDbDictionaryVar
  3
AutoCAD 2000
 90
        0
280
     0
281
     0
  0
ENDSEC
  0
SECTION
  2
TABLES
  0
TABLE
  2
VPORT
  5
343
330
0
100
AcDbSymbolTable
 70
     1
  0
VPORT
  5
35D
330
343
100
AcDbSymbolTableRecord
100
AcDbViewportTableRecord
  2
*ACTIVE
 70
     0
 10
0.0
 20
0.0
 11
1.0
 21
1.0
 12
8.103092783505154
 22
4.5
 13
0.0
 23
0.0
 14
0.5
 24
0.5
 15
0.5
 25
0.5
 16
0.0
 26
0.0
 36
1.0
 17
0.0
 27
0.0
 37
0.0
 40
9.0
 41
1.800687285223367
 42
50.0
 43
0.0
 44
0.0
 50
0.0
 51
0.0
 71
     0
 72
   100
 73
     1
 74
     3
 75
     0
 76
     0
 77
     0
 78
     0
281
     0
 65
     1
110
0.0
120
0.0
130
0.0
111
1.0
121
0.0
131
0.0
112
0.0
122
1.0
132
0.0
 79
     0
146
0.0
  0
ENDTAB
  0
TABLE
  2
LTYPE
  5
340
330
0
100
AcDbSymbolTable
 70
     4
  0
LTYPE
  5
34E
330
340
100
AcDbSymbolTableRecord
100
AcDbLinetypeTableRecord
  2
ByBlock
 70
     0
  3

 72
    65
 73
     0
 40
0.0
  0
LTYPE
  5
34F
330
340
100
AcDbSymbolTableRecord
100
AcDbLinetypeTableRecord
  2
ByLayer
 70
     0
  3

 72
    65
 73
     0
 40
0.0
  0
LTYPE
  5
350
330
340
100
AcDbSymbolTableRecord
100
AcDbLinetypeTableRecord
  2
CONTINUOUS
 70
     0
  3
Solid line
 72
    65
 73
     0
 40
0.0
  0
LTYPE
  5
35E
330
340
100
AcDbSymbolTableRecord
100
AcDbLinetypeTableRecord
  2
CENTER2
 70
     0
  3
Center (.5x) ___ _ ___ _ ___ _ ___ _ ___ _ ___
 72
    65
 73
     4
 40
1.125
 49
0.75
 74
     0
 49
-0.125
 74
     0
 49
0.125
 74
     0
 49
-0.125
 74
     0
  0
LTYPE
  5
35F
330
340
100
AcDbSymbolTableRecord
100
AcDbLinetypeTableRecord
  2
THREADS
 70
     0
  3
Zig zag /\/\/\/\/\/\/\/\/\/\/\/\/\/\/\/\/\/\/\/
 72
    65
 73
     4
 40
0.8001000000000001
 49
0.0001
 74
     0
 49
-0.2
 74
     0
 49
-0.4
 74
     0
 49
-0.2
 74
     0
  0
LTYPE
  5
360
330
340
100
AcDbSymbolTableRecord
100
AcDbLinetypeTableRecord
  2
HIDDENX2
 70
     0
  3
Hidden (2x) ____ ____ ____ ____ ____ ____ ____
 72
    65
 73
     2
 40
0.75
 49
0.5
 74
     0
 49
-0.25
 74
     0
  0
ENDTAB
  0
TABLE
  2
LAYER
  5
33D
330
0
100
AcDbSymbolTable
 70
     2
  0
LAYER
  5
34B
330
33D
100
AcDbSymbolTableRecord
100
AcDbLayerTableRecord
  2
0
 70
     0
 62
     7
  6
CONTINUOUS
370
    -3
390
34A
  0
LAYER
  5
361
330
33D
100
AcDbSymbolTableRecord
100
AcDbLayerTableRecord
  2
DEFPOINTS
 70
     0
 62
     7
  6
CONTINUOUS
290
     0
370
    -3
390
34A
  0
ENDTAB
  0
TABLE
  2
STYLE
  5
33E
330
0
100
AcDbSymbolTable
 70
     2
  0
STYLE
  5
34C
330
33E
100
AcDbSymbolTableRecord
100
AcDbTextStyleTableRecord
  2
STANDARD
 70
     0
 40
0.0
 41
1.0
 50
0.0
 71
     0
 42
0.2
  3
txt
  4

  0
STYLE
  5
362
330
33E
100
AcDbSymbolTableRecord
100
AcDbTextStyleTableRecord
  2

 70
     1
 40
0.0
 41
1.0
 50
0.0
 71
     0
 42
0.2
  3
ltypeshp.shx
  4

  0
ENDTAB
  0
TABLE
  2
VIEW
  5
341
330
0
100
AcDbSymbolTable
 70
     0
  0
ENDTAB
  0
TABLE
  2
UCS
  5
342
330
0
100
AcDbSymbolTable
 70
     0
  0
ENDTAB
  0
TABLE
  2
APPID
  5
344
330
0
100
AcDbSymbolTable
 70
     2
  0
APPID
  5
34D
330
344
100
AcDbSymbolTableRecord
100
AcDbRegAppTableRecord
  2
ACAD
 70
     0
  0
APPID
  5
363
330
344
100
AcDbSymbolTableRecord
100
AcDbRegAppTableRecord
  2
ACAD_EXEMPT_FROM_CAD_STANDARDS
 70
     0
  0
ENDTAB
  0
TABLE
  2
DIMSTYLE
  5
345
330
0
100
AcDbSymbolTable
 70
     1
100
AcDbDimStyleTable
 71
     0
  0
DIMSTYLE
105
364
102
{ACAD_REACTORS
330
471
330
472
330
473
330
48D
330
48E
330
48F
330
490
330
491
102
}
330
345
100
AcDbSymbolTableRecord
100
AcDbDimStyleTableRecord
  2
STANDARD
 70
     0
 41
0.125
140
0.1
279
     2
340
34C
  0
ENDTAB
  0
TABLE
  2
BLOCK_RECORD
  5
33C
330
0
100
AcDbSymbolTable
 70
    32
  0
BLOCK_RECORD
  5
359
330
33C
100
AcDbSymbolTableRecord
100
AcDbBlockTableRecord
  2
*Model_Space
340
35C
  0
BLOCK_RECORD
  5
355
330
33C
100
AcDbSymbolTableRecord
100
AcDbBlockTableRecord
  2
*Paper_Space
340
358
  0
BLOCK_RECORD
  5
367
330
33C
100
AcDbSymbolTableRecord
100
AcDbBlockTableRecord
  2
$MODEL_SPACE
340
0
  0
BLOCK_RECORD
  5
36A
330
33C
100
AcDbSymbolTableRecord
100
AcDbBlockTableRecord
  2
$PAPER_SPACE
340
0
  0
BLOCK_RECORD
  5
36D
330
33C
100
AcDbSymbolTableRecord
100
AcDbBlockTableRecord
  2
*D2
340
0
  0
BLOCK_RECORD
  5
375
330
33C
100
AcDbSymbolTableRecord
100
AcDbBlockTableRecord
  2
*U3
340
0
102
{BLKREFS
331
376
102
}
  0
BLOCK_RECORD
  5
37B
330
33C
100
AcDbSymbolTableRecord
100
AcDbBlockTableRecord
  2
*D4
340
0
  0
BLOCK_RECORD
  5
384
330
33C
100
AcDbSymbolTableRecord
100
AcDbBlockTableRecord
  2
*U5
340
0
102
{BLKREFS
331
385
102
}
  0
BLOCK_RECORD
  5
38A
330
33C
100
AcDbSymbolTableRecord
100
AcDbBlockTableRecord
  2
*D6
340
0
  0
BLOCK_RECORD
  5
38E
330
33C
100
AcDbSymbolTableRecord
100
AcDbBlockTableRecord
  2
*U7
340
0
102
{BLKREFS
331
38F
102
}
  0
BLOCK_RECORD
  5
396
330
33C
100
AcDbSymbolTableRecord
100
AcDbBlockTableRecord
  2
*D8
340
0
  0
BLOCK_RECORD
  5
399
330
33C
100
AcDbSymbolTableRecord
100
AcDbBlockTableRecord
  2
*U9
340
0
102
{BLKREFS
331
39A
102
}
  0
BLOCK_RECORD
  5
39F
330
33C
100
AcDbSymbolTableRecord
100
AcDbBlockTableRecord
  2
*D10
340
0
  0
BLOCK_RECORD
  5
3A3
330
33C
100
AcDbSymbolTableRecord
100
AcDbBlockTableRecord
  2
*U11
340
0
102
{BLKREFS
331
3A4
102
}
  0
BLOCK_RECORD
  5
3AB
330
33C
100
AcDbSymbolTableRecord
100
AcDbBlockTableRecord
  2
*D12
340
0
  0
BLOCK_RECORD
  5
3AF
330
33C
100
AcDbSymbolTableRecord
100
AcDbBlockTableRecord
  2
*U13
340
0
102
{BLKREFS
331
3B0
102
}
  0
BLOCK_RECORD
  5
3B7
330
33C
100
AcDbSymbolTableRecord
100
AcDbBlockTableRecord
  2
*D14
340
0
  0
BLOCK_RECORD
  5
3BF
330
33C
100
AcDbSymbolTableRecord
100
AcDbBlockTableRecord
  2
*U15
340
0
102
{BLKREFS
331
3C0
102
}
  0
BLOCK_RECORD
  5
3C5
330
33C
100
AcDbSymbolTableRecord
100
AcDbBlockTableRecord
  2
*D16
340
0
  0
BLOCK_RECORD
  5
3CD
330
33C
100
AcDbSymbolTableRecord
100
AcDbBlockTableRecord
  2
*U17
340
0
102
{BLKREFS
331
3CE
102
}
  0
BLOCK_RECORD
  5
3D3
330
33C
100
AcDbSymbolTableRecord
100
AcDbBlockTableRecord
  2
*D18
340
0
  0
BLOCK_RECORD
  5
3D7
330
33C
100
AcDbSymbolTableRecord
100
AcDbBlockTableRecord
  2
*U19
340
0
102
{BLKREFS
331
3D8
102
}
  0
BLOCK_RECORD
  5
3DF
330
33C
100
AcDbSymbolTableRecord
100
AcDbBlockTableRecord
  2
*D20
340
0
  0
BLOCK_RECORD
  5
3EA
330
33C
100
AcDbSymbolTableRecord
100
AcDbBlockTableRecord
  2
*D21
340
0
  0
BLOCK_RECORD
  5
3EE
330
33C
100
AcDbSymbolTableRecord
100
AcDbBlockTableRecord
  2
*U22
340
0
102
{BLKREFS
331
3EF
102
}
  0
BLOCK_RECORD
  5
3F6
330
33C
100
AcDbSymbolTableRecord
100
AcDbBlockTableRecord
  2
*D23
340
0
  0
BLOCK_RECORD
  5
3FE
330
33C
100
AcDbSymbolTableRecord
100
AcDbBlockTableRecord
  2
*U24
340
0
102
{BLKREFS
331
3FF
102
}
  0
BLOCK_RECORD
  5
404
330
33C
100
AcDbSymbolTableRecord
100
AcDbBlockTableRecord
  2
*D25
340
0
  0
BLOCK_RECORD
  5
40C
330
33C
100
AcDbSymbolTableRecord
100
AcDbBlockTableRecord
  2
*U26
340
0
102
{BLKREFS
331
40D
102
}
  0
BLOCK_RECORD
  5
412
330
33C
100
AcDbSymbolTableRecord
100
AcDbBlockTableRecord
  2
*U27
340
0
102
{BLKREFS
331
462
102
}
  0
BLOCK_RECORD
  5
417
330
33C
100
AcDbSymbolTableRecord
100
AcDbBlockTableRecord
  2
*U28
340
0
102
{BLKREFS
331
463
102
}
  0
BLOCK_RECORD
  5
41D
330
33C
100
AcDbSymbolTableRecord
100
AcDbBlockTableRecord
  2
*U29
340
0
  0
BLOCK_RECORD
  5
430
330
33C
100
AcDbSymbolTableRecord
100
AcDbBlockTableRecord
  2
*U30
340
0
  0
BLOCK_RECORD
  5
43A
330
33C
100
AcDbSymbolTableRecord
100
AcDbBlockTableRecord
  2
*U31
340
0
102
{BLKREFS
331
474
102
}
  0
ENDTAB
  0
ENDSEC
  0
SECTION
  2
BLOCKS
  0
BLOCK
  5
35A
330
359
100
AcDbEntity
  8
0
100
AcDbBlockBegin
  2
*Model_Space
 70
     0
 10
0.0
 20
0.0
 30
0.0
  3
*Model_Space
  1

  0
ENDBLK
  5
35B
330
359
100
AcDbEntity
  8
0
100
AcDbBlockEnd
  0
BLOCK
  5
356
330
355
100
AcDbEntity
 67
     1
  8
0
100
AcDbBlockBegin
  2
*Paper_Space
 70
     0
 10
0.0
 20
0.0
 30
0.0
  3
*Paper_Space
  1

  0
ENDBLK
  5
357
330
355
100
AcDbEntity
 67
     1
  8
0
100
AcDbBlockEnd
  0
BLOCK
  5
368
330
367
100
AcDbEntity
  8
0
100
AcDbBlockBegin
  2
$MODEL_SPACE
 70
     0
 10
0.0
 20
0.0
 30
0.0
  3
$MODEL_SPACE
  1

  0
ENDBLK
  5
369
330
367
100
AcDbEntity
  8
0
100
AcDbBlockEnd
  0
BLOCK
  5
36B
330
36A
100
AcDbEntity
  8
0
100
AcDbBlockBegin
  2
$PAPER_SPACE
 70
     0
 10
0.0
 20
0.0
 30
0.0
  3
$PAPER_SPACE
  1

  0
ENDBLK
  5
36C
330
36A
100
AcDbEntity
  8
0
100
AcDbBlockEnd
  0
BLOCK
  5
36E
330
36D
100
AcDbEntity
  8
0
100
AcDbBlockBegin
  2
*D2
 70
     1
 10
0.0
 20
0.0
 30
0.0
  3
*D2
  1

  0
LINE
  5
36F
330
36D
100
AcDbEntity
  8
0
 62
     0
100
AcDbLine
 10
2.065939794271773
 20
3.306172796643416
 30
0.0
 11
2.065939794271773
 21
2.048227393157791
 31
0.0
  0
LINE
  5
370
330
36D
100
AcDbEntity
  8
0
 62
     0
100
AcDbLine
 10
8.003439077553453
 20
3.306172796643414
 30
0.0
 11
8.003439077553453
 21
2.048227393157791
 31
0.0
  0
LINE
  5
371
330
36D
100
AcDbEntity
  8
0
 62
     0
100
AcDbLine
 10
2.190939794271773
 20
2.228227393157791
 30
0.0
 11
4.887320614183264
 21
2.228227393157791
 31
0.0
  0
LINE
  5
372
330
36D
100
AcDbEntity
  8
0
 62
     0
100
AcDbLine
 10
7.87843907755345
 20
2.228227393157791
 30
0.0
 11
5.467320614183265
 21
2.228227393157791
 31
0.0
  0
SOLID
  5
373
330
36D
100
AcDbEntity
  8
0
 62
     0
100
AcDbTrace
 10
2.190939794271773
 20
2.249060726491124
 30
0.0
 11
2.190939794271773
 21
2.207394059824456
 31
0.0
 12
2.065939794271773
 22
2.228227393157791
 32
0.0
 13
2.065939794271773
 23
2.228227393157791
 33
0.0
  0
SOLID
  5
374
330
36D
100
AcDbEntity
  8
0
 62
     0
100
AcDbTrace
 10
7.87843907755345
 20
2.249060726491124
 30
0.0
 11
7.87843907755345
 21
2.207394059824456
 31
0.0
 12
8.003439077553453
 22
2.228227393157791
 32
0.0
 13
8.003439077553453
 23
2.228227393157791
 33
0.0
  0
INSERT
  5
376
330
36D
100
AcDbEntity
  8
0
100
AcDbBlockReference
  2
*U3
 10
0.0
 20
0.0
 30
0.0
  0
POINT
  5
377
330
36D
100
AcDbEntity
  8
DEFPOINTS
 62
     0
100
AcDbPoint
 10
2.065939794271773
 20
3.368672796643416
 30
0.0
  0
POINT
  5
378
330
36D
100
AcDbEntity
  8
DEFPOINTS
 62
     0
100
AcDbPoint
 10
8.003439077553453
 20
3.368672796643414
 30
0.0
  0
POINT
  5
379
330
36D
100
AcDbEntity
  8
DEFPOINTS
 62
     0
100
AcDbPoint
 10
8.003439077553453
 20
2.228227393157791
 30
0.0
  0
ENDBLK
  5
37A
330
36D
100
AcDbEntity
  8
0
100
AcDbBlockEnd
  0
BLOCK
  5
421
330
375
100
AcDbEntity
  8
0
100
AcDbBlockBegin
  2
*U3
 70
     1
 10
0.0
 20
0.0
 30
0.0
  3
*U3
  1

  0
TEXT
  5
422
330
375
100
AcDbEntity
  8
0
 62
     0
100
AcDbText
 10
4.977320614183264
 20
2.17822739315779
 30
0.0
 40
0.1
  1
5.937
100
AcDbText
  0
ENDBLK
  5
423
330
375
100
AcDbEntity
  8
0
100
AcDbBlockEnd
  0
BLOCK
  5
37C
330
37B
100
AcDbEntity
  8
0
100
AcDbBlockBegin
  2
*D4
 70
     1
 10
0.0
 20
0.0
 30
0.0
  3
*D4
  1

  0
LINE
  5
37D
330
37B
100
AcDbEntity
  8
0
 62
     0
100
AcDbLine
 10
2.003439794271773
 20
3.556172796643415
 30
0.0
 11
1.503406065406209
 21
3.556172796643415
 31
0.0
  0
LINE
  5
37E
330
37B
100
AcDbEntity
  8
0
 62
     0
100
AcDbLine
 10
2.003439794271773
 20
3.368672796643416
 30
0.0
 11
1.503406065406208
 21
3.368672796643416
 31
0.0
  0
LINE
  5
37F
330
37B
100
AcDbEntity
  8
0
 62
     0
100
AcDbLine
 10
1.683406065406209
 20
3.681172796643415
 30
0.0
 11
1.683406065406209
 21
3.806172796643415
 31
0.0
  0
LINE
  5
380
330
37B
100
AcDbEntity
  8
0
 62
     0
100
AcDbLine
 10
1.683406065406209
 20
3.243672796643416
 30
0.0
 11
1.683406065406209
 21
3.118672796643416
 31
0.0
  0
LINE
  5
381
330
37B
100
AcDbEntity
  8
0
 62
     0
100
AcDbLine
 10
1.683406065406209
 20
3.118672796643416
 30
0.0
 11
1.558406065406209
 21
3.118672796643416
 31
0.0
  0
SOLID
  5
382
330
37B
100
AcDbEntity
  8
0
 62
     0
100
AcDbTrace
 10
1.662572732072876
 20
3.681172796643415
 30
0.0
 11
1.704239398739543
 21
3.681172796643415
 31
0.0
 12
1.683406065406209
 22
3.556172796643415
 32
0.0
 13
1.683406065406209
 23
3.556172796643415
 33
0.0
  0
SOLID
  5
383
330
37B
100
AcDbEntity
  8
0
 62
     0
100
AcDbTrace
 10
1.662572732072876
 20
3.243672796643416
 30
0.0
 11
1.704239398739542
 21
3.243672796643416
 31
0.0
 12
1.683406065406209
 22
3.368672796643416
 32
0.0
 13
1.683406065406209
 23
3.368672796643416
 33
0.0
  0
INSERT
  5
385
330
37B
100
AcDbEntity
  8
0
100
AcDbBlockReference
  2
*U5
 10
0.0
 20
0.0
 30
0.0
  0
POINT
  5
386
330
37B
100
AcDbEntity
  8
DEFPOINTS
 62
     0
100
AcDbPoint
 10
2.065939794271773
 20
3.556172796643415
 30
0.0
  0
POINT
  5
387
330
37B
100
AcDbEntity
  8
DEFPOINTS
 62
     0
100
AcDbPoint
 10
2.065939794271773
 20
3.368672796643416
 30
0.0
  0
POINT
  5
388
330
37B
100
AcDbEntity
  8
DEFPOINTS
 62
     0
100
AcDbPoint
 10
1.683406065406209
 20
3.368672796643416
 30
0.0
  0
ENDBLK
  5
389
330
37B
100
AcDbEntity
  8
0
100
AcDbBlockEnd
  0
BLOCK
  5
424
330
384
100
AcDbEntity
  8
0
100
AcDbBlockBegin
  2
*U5
 70
     1
 10
0.0
 20
0.0
 30
0.0
  3
*U5
  1

  0
TEXT
  5
425
330
384
100
AcDbEntity
  8
0
 62
     0
100
AcDbText
 10
1.118406065406208
 20
3.068672796643416
 30
0.0
 40
0.1
  1
0.188
100
AcDbText
  0
ENDBLK
  5
426
330
384
100
AcDbEntity
  8
0
100
AcDbBlockEnd
  0
BLOCK
  5
38B
330
38A
100
AcDbEntity
  8
0
100
AcDbBlockBegin
  2
*D6
 70
     1
 10
0.0
 20
0.0
 30
0.0
  3
*D6
  1

  0
LINE
  5
38C
330
38A
100
AcDbEntity
  8
0
 62
     0
100
AcDbLine
 10
1.724287411151157
 20
5.800969579885727
 30
0.0
 11
1.849287411151161
 21
5.800969579885727
 31
0.0
  0
LINE
  5
38D
330
38A
100
AcDbEntity
  8
0
 62
     0
100
AcDbLine
 10
1.849287411151161
 20
5.800969579885727
 30
0.0
 11
2.078122004687071
 21
5.583978665952558
 31
0.0
  0
INSERT
  5
38F
330
38A
100
AcDbEntity
  8
0
100
AcDbBlockReference
  2
*U7
 10
0.0
 20
0.0
 30
0.0
  0
SOLID
  5
390
330
38A
100
AcDbEntity
  8
0
 62
     0
100
AcDbTrace
 10
2.092456988334848
 20
5.59909607385192
 30
0.0
 11
2.063787021039293
 21
5.568861258053195
 31
0.0
 12
2.168826452083246
 22
5.497968764065889
 32
0.0
 13
2.168826452083246
 23
5.497968764065889
 33
0.0
  0
LINE
  5
391
330
38A
100
AcDbEntity
  8
0
 62
     0
100
AcDbLine
 10
2.350939794271774
 20
5.239939058405886
 30
0.0
 11
2.530939794271774
 21
5.239939058405886
 31
0.0
  0
LINE
  5
392
330
38A
100
AcDbEntity
  8
0
 62
     0
100
AcDbLine
 10
2.440939794271773
 20
5.149939058405887
 30
0.0
 11
2.440939794271773
 21
5.329939058405884
 31
0.0
  0
POINT
  5
393
330
38A
100
AcDbEntity
  8
DEFPOINTS
 62
     0
100
AcDbPoint
 10
2.168826452083246
 20
5.497968764065889
 30
0.0
  0
POINT
  5
394
330
38A
100
AcDbEntity
  8
DEFPOINTS
 62
     0
100
AcDbPoint
 10
2.440939794271775
 20
5.239939058405886
 30
0.0
  0
ENDBLK
  5
395
330
38A
100
AcDbEntity
  8
0
100
AcDbBlockEnd
  0
BLOCK
  5
427
330
38E
100
AcDbEntity
  8
0
100
AcDbBlockBegin
  2
*U7
 70
     1
 10
0.0
 20
0.0
 30
0.0
  3
*U7
  1

  0
TEXT
  5
428
330
38E
100
AcDbEntity
  8
0
 62
     0
100
AcDbText
 10
1.150954077817823
 20
5.750969579885724
 30
0.0
 40
0.1
  1
R0.375
100
AcDbText
  0
ENDBLK
  5
429
330
38E
100
AcDbEntity
  8
0
100
AcDbBlockEnd
  0
BLOCK
  5
397
330
396
100
AcDbEntity
  8
0
100
AcDbBlockBegin
  2
*D8
 70
     1
 10
0.0
 20
0.0
 30
0.0
  3
*D8
  1

  0
LINE
  5
398
330
396
100
AcDbEntity
  8
0
 62
     0
100
AcDbLine
 10
6.332278101067047
 20
5.407911063680763
 30
0.0
 11
7.873656065938318
 21
5.178100654127316
 31
0.0
  0
INSERT
  5
39A
330
396
100
AcDbEntity
  8
0
100
AcDbBlockReference
  2
*U9
 10
0.0
 20
0.0
 30
0.0
  0
SOLID
  5
39B
330
396
100
AcDbEntity
  8
0
 62
     0
100
AcDbTrace
 10
7.876728235639648
 20
5.198706225002785
 30
0.0
 11
7.87058389623699
 21
5.157495083251848
 31
0.0
 12
7.997289491191137
 22
5.15966763591934
 32
0.0
 13
7.997289491191137
 23
5.15966763591934
 33
0.0
  0
POINT
  5
39C
330
396
100
AcDbEntity
  8
DEFPOINTS
 62
     0
100
AcDbPoint
 10
7.997289491191137
 20
5.15966763591934
 30
0.0
  0
POINT
  5
39D
330
396
100
AcDbEntity
  8
DEFPOINTS
 62
     0
100
AcDbPoint
 10
7.440939077553452
 20
5.242616217855233
 30
0.0
  0
ENDBLK
  5
39E
330
396
100
AcDbEntity
  8
0
100
AcDbBlockEnd
  0
BLOCK
  5
442
330
399
100
AcDbEntity
  8
0
100
AcDbBlockBegin
  2
*U9
 70
     1
 10
0.0
 20
0.0
 30
0.0
  3
*U9
  1

  0
TEXT
  5
443
330
399
100
AcDbEntity
  8
0
 62
     0
100
AcDbText
 10
5.758944767733716
 20
5.357911063680763
 30
0.0
 40
0.1
  1
R0.563
100
AcDbText
  0
ENDBLK
  5
444
330
399
100
AcDbEntity
  8
0
100
AcDbBlockEnd
  0
BLOCK
  5
3A0
330
39F
100
AcDbEntity
  8
0
100
AcDbBlockBegin
  2
*D10
 70
     1
 10
0.0
 20
0.0
 30
0.0
  3
*D10
  1

  0
LINE
  5
3A1
330
39F
100
AcDbEntity
  8
0
 62
     0
100
AcDbLine
 10
8.2327018421448
 20
5.940368482763225
 30
0.0
 11
8.1077018421448
 21
5.940368482763225
 31
0.0
  0
LINE
  5
3A2
330
39F
100
AcDbEntity
  8
0
 62
     0
100
AcDbLine
 10
8.1077018421448
 20
5.940368482763225
 30
0.0
 11
7.786373842898583
 21
5.604105945082656
 31
0.0
  0
INSERT
  5
3A4
330
39F
100
AcDbEntity
  8
0
100
AcDbBlockReference
  2
*U11
 10
0.0
 20
0.0
 30
0.0
  0
SOLID
  5
3A5
330
39F
100
AcDbEntity
  8
0
 62
     0
100
AcDbTrace
 10
7.771311770930774
 20
5.618499060305368
 30
0.0
 11
7.801435914866392
 21
5.589712829859942
 31
0.0
 12
7.7000151515623
 22
5.5137335132758
 32
0.0
 13
7.7000151515623
 23
5.5137335132758
 33
0.0
  0
LINE
  5
3A6
330
39F
100
AcDbEntity
  8
0
 62
     0
100
AcDbLine
 10
7.350939077553451
 20
5.242616217855236
 30
0.0
 11
7.530939077553449
 21
5.242616217855236
 31
0.0
  0
LINE
  5
3A7
330
39F
100
AcDbEntity
  8
0
 62
     0
100
AcDbLine
 10
7.440939077553449
 20
5.152616217855236
 30
0.0
 11
7.440939077553449
 21
5.332616217855234
 31
0.0
  0
POINT
  5
3A8
330
39F
100
AcDbEntity
  8
DEFPOINTS
 62
     0
100
AcDbPoint
 10
7.7000151515623
 20
5.5137335132758
 30
0.0
  0
POINT
  5
3A9
330
39F
100
AcDbEntity
  8
DEFPOINTS
 62
     0
100
AcDbPoint
 10
7.181863003544603
 20
4.971498922434671
 30
0.0
  0
ENDBLK
  5
3AA
330
39F
100
AcDbEntity
  8
0
100
AcDbBlockEnd
  0
BLOCK
  5
42A
330
3A3
100
AcDbEntity
  8
0
100
AcDbBlockBegin
  2
*U11
 70
     1
 10
0.0
 20
0.0
 30
0.0
  3
*U11
  1

  0
TEXT
  5
42B
330
3A3
100
AcDbEntity
  8
0
 62
     0
100
AcDbText
 10
8.322701842144798
 20
5.890368482763225
 30
0.0
 40
0.1
  1
\U+22050.750
100
AcDbText
  0
ENDBLK
  5
42C
330
3A3
100
AcDbEntity
  8
0
100
AcDbBlockEnd
  0
BLOCK
  5
3AC
330
3AB
100
AcDbEntity
  8
0
100
AcDbBlockBegin
  2
*D12
 70
     1
 10
0.0
 20
0.0
 30
0.0
  3
*D12
  1

  0
LINE
  5
3AD
330
3AB
100
AcDbEntity
  8
0
 62
     0
100
AcDbLine
 10
8.587319099481449
 20
5.56200001307862
 30
0.0
 11
8.462319099481446
 21
5.56200001307862
 31
0.0
  0
LINE
  5
3AE
330
3AB
100
AcDbEntity
  8
0
 62
     0
100
AcDbLine
 10
8.462319099481446
 20
5.56200001307862
 30
0.0
 11
7.865658683236609
 21
5.375425315993664
 31
0.0
  0
INSERT
  5
3B0
330
3AB
100
AcDbEntity
  8
0
100
AcDbBlockReference
  2
*U13
 10
0.0
 20
0.0
 30
0.0
  0
SOLID
  5
3B1
330
3AB
100
AcDbEntity
  8
0
 62
     0
100
AcDbTrace
 10
7.859441028829379
 20
5.395309192664224
 30
0.0
 11
7.871876337643836
 21
5.355541439323102
 31
0.0
 12
7.746355423213247
 22
5.338119389550285
 32
0.0
 13
7.746355423213247
 23
5.338119389550285
 33
0.0
  0
LINE
  5
3B2
330
3AB
100
AcDbEntity
  8
0
 62
     0
100
AcDbLine
 10
7.350939077553449
 20
5.242616217855233
 30
0.0
 11
7.530939077553449
 21
5.242616217855233
 31
0.0
  0
LINE
  5
3B3
330
3AB
100
AcDbEntity
  8
0
 62
     0
100
AcDbLine
 10
7.440939077553449
 20
5.152616217855233
 30
0.0
 11
7.440939077553449
 21
5.332616217855233
 31
0.0
  0
POINT
  5
3B4
330
3AB
100
AcDbEntity
  8
DEFPOINTS
 62
     0
100
AcDbPoint
 10
7.746355423213247
 20
5.338119389550285
 30
0.0
  0
POINT
  5
3B5
330
3AB
100
AcDbEntity
  8
DEFPOINTS
 62
     0
100
AcDbPoint
 10
7.135522731893653
 20
5.147113046160185
 30
0.0
  0
ENDBLK
  5
3B6
330
3AB
100
AcDbEntity
  8
0
100
AcDbBlockEnd
  0
BLOCK
  5
42D
330
3AF
100
AcDbEntity
  8
0
100
AcDbBlockBegin
  2
*U13
 70
     1
 10
0.0
 20
0.0
 30
0.0
  3
*U13
  1

  0
TEXT
  5
42E
330
3AF
100
AcDbEntity
  8
0
 62
     0
100
AcDbText
 10
8.677319099481445
 20
5.51200001307862
 30
0.0
 40
0.1
  1
\U+22050.640
100
AcDbText
  0
ENDBLK
  5
42F
330
3AF
100
AcDbEntity
  8
0
100
AcDbBlockEnd
  0
BLOCK
  5
3B8
330
3B7
100
AcDbEntity
  8
0
100
AcDbBlockBegin
  2
*D14
 70
     1
 10
0.0
 20
0.0
 30
0.0
  3
*D14
  1

  0
LINE
  5
3B9
330
3B7
100
AcDbEntity
  8
0
 62
     0
100
AcDbLine
 10
7.370939077553449
 20
5.617366117775154
 30
0.0
 11
7.370939077553449
 21
6.478822804448221
 31
0.0
  0
LINE
  5
3BA
330
3B7
100
AcDbEntity
  8
0
 62
     0
100
AcDbLine
 10
7.510939077553451
 20
5.617366117775154
 30
0.0
 11
7.510939077553451
 21
6.478822804448221
 31
0.0
  0
LINE
  5
3BB
330
3B7
100
AcDbEntity
  8
0
 62
     0
100
AcDbLine
 10
7.245939077553449
 20
6.29882280444822
 30
0.0
 11
7.12093907755345
 21
6.29882280444822
 31
0.0
  0
LINE
  5
3BC
330
3B7
100
AcDbEntity
  8
0
 62
     0
100
AcDbLine
 10
7.635939077553451
 20
6.29882280444822
 30
0.0
 11
7.760939077553451
 21
6.29882280444822
 31
0.0
  0
SOLID
  5
3BD
330
3B7
100
AcDbEntity
  8
0
 62
     0
100
AcDbTrace
 10
7.245939077553449
 20
6.319656137781553
 30
0.0
 11
7.245939077553449
 21
6.277989471114888
 31
0.0
 12
7.370939077553449
 22
6.29882280444822
 32
0.0
 13
7.370939077553449
 23
6.29882280444822
 33
0.0
  0
SOLID
  5
3BE
330
3B7
100
AcDbEntity
  8
0
 62
     0
100
AcDbTrace
 10
7.635939077553451
 20
6.319656137781553
 30
0.0
 11
7.635939077553451
 21
6.277989471114888
 31
0.0
 12
7.510939077553451
 22
6.29882280444822
 32
0.0
 13
7.510939077553451
 23
6.29882280444822
 33
0.0
  0
INSERT
  5
3C0
330
3B7
100
AcDbEntity
  8
0
100
AcDbBlockReference
  2
*U15
 10
0.0
 20
0.0
 30
0.0
  0
POINT
  5
3C1
330
3B7
100
AcDbEntity
  8
DEFPOINTS
 62
     0
100
AcDbPoint
 10
7.370939077553449
 20
5.554866117775154
 30
0.0
  0
POINT
  5
3C2
330
3B7
100
AcDbEntity
  8
DEFPOINTS
 62
     0
100
AcDbPoint
 10
7.510939077553451
 20
5.554866117775154
 30
0.0
  0
POINT
  5
3C3
330
3B7
100
AcDbEntity
  8
DEFPOINTS
 62
     0
100
AcDbPoint
 10
7.510939077553451
 20
6.29882280444822
 30
0.0
  0
ENDBLK
  5
3C4
330
3B7
100
AcDbEntity
  8
0
100
AcDbBlockEnd
  0
BLOCK
  5
434
330
3BF
100
AcDbEntity
  8
0
100
AcDbBlockBegin
  2
*U15
 70
     1
 10
0.0
 20
0.0
 30
0.0
  3
*U15
  1

  0
TEXT
  5
435
330
3BF
100
AcDbEntity
  8
0
 62
     0
100
AcDbText
 10
7.850939077553451
 20
6.24882280444822
 30
0.0
 40
0.1
  1
0.140
100
AcDbText
  0
ENDBLK
  5
436
330
3BF
100
AcDbEntity
  8
0
100
AcDbBlockEnd
  0
BLOCK
  5
3C6
330
3C5
100
AcDbEntity
  8
0
100
AcDbBlockBegin
  2
*D16
 70
     1
 10
0.0
 20
0.0
 30
0.0
  3
*D16
  1

  0
LINE
  5
3C7
330
3C5
100
AcDbEntity
  8
0
 62
     0
100
AcDbLine
 10
7.440939077553449
 20
5.180116217855233
 30
0.0
 11
7.440939077553449
 21
4.246894661076137
 31
0.0
  0
LINE
  5
3C8
330
3C5
100
AcDbEntity
  8
0
 62
     0
100
AcDbLine
 10
2.440939794271773
 20
5.180116217855233
 30
0.0
 11
2.440939794271773
 21
4.246894661076137
 31
0.0
  0
LINE
  5
3C9
330
3C5
100
AcDbEntity
  8
0
 62
     0
100
AcDbLine
 10
7.315939077553449
 20
4.426894661076135
 30
0.0
 11
5.034216437727038
 21
4.426894661076135
 31
0.0
  0
LINE
  5
3CA
330
3C5
100
AcDbEntity
  8
0
 62
     0
100
AcDbLine
 10
2.565939794271773
 20
4.426894661076135
 30
0.0
 11
4.504216437727039
 21
4.426894661076135
 31
0.0
  0
SOLID
  5
3CB
330
3C5
100
AcDbEntity
  8
0
 62
     0
100
AcDbTrace
 10
7.315939077553449
 20
4.447727994409468
 30
0.0
 11
7.315939077553449
 21
4.406061327742802
 31
0.0
 12
7.440939077553449
 22
4.426894661076135
 32
0.0
 13
7.440939077553449
 23
4.426894661076135
 33
0.0
  0
SOLID
  5
3CC
330
3C5
100
AcDbEntity
  8
0
 62
     0
100
AcDbTrace
 10
2.565939794271773
 20
4.447727994409468
 30
0.0
 11
2.565939794271773
 21
4.406061327742802
 31
0.0
 12
2.440939794271773
 22
4.426894661076135
 32
0.0
 13
2.440939794271773
 23
4.426894661076135
 33
0.0
  0
INSERT
  5
3CE
330
3C5
100
AcDbEntity
  8
0
100
AcDbBlockReference
  2
*U17
 10
0.0
 20
0.0
 30
0.0
  0
POINT
  5
3CF
330
3C5
100
AcDbEntity
  8
DEFPOINTS
 62
     0
100
AcDbPoint
 10
7.440939077553449
 20
5.242616217855233
 30
0.0
  0
POINT
  5
3D0
330
3C5
100
AcDbEntity
  8
DEFPOINTS
 62
     0
100
AcDbPoint
 10
2.440939794271773
 20
5.242616217855233
 30
0.0
  0
POINT
  5
3D1
330
3C5
100
AcDbEntity
  8
DEFPOINTS
 62
     0
100
AcDbPoint
 10
2.440939794271773
 20
4.426894661076135
 30
0.0
  0
ENDBLK
  5
3D2
330
3C5
100
AcDbEntity
  8
0
100
AcDbBlockEnd
  0
BLOCK
  5
437
330
3CD
100
AcDbEntity
  8
0
100
AcDbBlockBegin
  2
*U17
 70
     1
 10
0.0
 20
0.0
 30
0.0
  3
*U17
  1

  0
TEXT
  5
438
330
3CD
100
AcDbEntity
  8
0
 62
     0
100
AcDbText
 10
4.594216437727038
 20
4.376894661076137
 30
0.0
 40
0.1
  1
5.000
100
AcDbText
  0
ENDBLK
  5
439
330
3CD
100
AcDbEntity
  8
0
100
AcDbBlockEnd
  0
BLOCK
  5
3D4
330
3D3
100
AcDbEntity
  8
0
100
AcDbBlockBegin
  2
*D18
 70
     1
 10
0.0
 20
0.0
 30
0.0
  3
*D18
  1

  0
LINE
  5
3D5
330
3D3
100
AcDbEntity
  8
0
 62
     0
100
AcDbLine
 10
6.604718855052321
 20
6.120048698680223
 30
0.0
 11
6.729718855052323
 21
6.120048698680223
 31
0.0
  0
LINE
  5
3D6
330
3D3
100
AcDbEntity
  8
0
 62
     0
100
AcDbLine
 10
6.729718855052323
 20
6.120048698680223
 30
0.0
 11
7.008027916293503
 21
5.776698773698957
 31
0.0
  0
INSERT
  5
3D8
330
3D3
100
AcDbEntity
  8
0
100
AcDbBlockReference
  2
*U19
 10
0.0
 20
0.0
 30
0.0
  0
SOLID
  5
3D9
330
3D3
100
AcDbEntity
  8
0
 62
     0
100
AcDbTrace
 10
7.024212236167556
 20
5.789817293737137
 30
0.0
 11
6.991843596419449
 21
5.763580253660777
 31
0.0
 12
7.086739036522584
 22
5.679592854454644
 32
0.0
 13
7.086739036522584
 23
5.679592854454644
 33
0.0
  0
LINE
  5
3DA
330
3D3
100
AcDbEntity
  8
0
 62
     0
100
AcDbLine
 10
7.350939077553454
 20
5.242616217855235
 30
0.0
 11
7.530939077553452
 21
5.242616217855235
 31
0.0
  0
LINE
  5
3DB
330
3D3
100
AcDbEntity
  8
0
 62
     0
100
AcDbLine
 10
7.440939077553452
 20
5.152616217855235
 30
0.0
 11
7.440939077553452
 21
5.332616217855233
 31
0.0
  0
POINT
  5
3DC
330
3D3
100
AcDbEntity
  8
DEFPOINTS
 62
     0
100
AcDbPoint
 10
7.086739036522584
 20
5.679592854454644
 30
0.0
  0
POINT
  5
3DD
330
3D3
100
AcDbEntity
  8
DEFPOINTS
 62
     0
100
AcDbPoint
 10
7.795139118584319
 20
4.805639581255826
 30
0.0
  0
ENDBLK
  5
3DE
330
3D3
100
AcDbEntity
  8
0
100
AcDbBlockEnd
  0
BLOCK
  5
445
330
3D7
100
AcDbEntity
  8
0
100
AcDbBlockBegin
  2
*U19
 70
     1
 10
0.0
 20
0.0
 30
0.0
  3
*U19
  1

  0
TEXT
  5
446
330
3D7
100
AcDbEntity
  8
0
 62
     0
100
AcDbText
 10
6.081385521718988
 20
6.070048698680222
 30
0.0
 40
0.1
  1
\U+22051.125
100
AcDbText
  0
ENDBLK
  5
447
330
3D7
100
AcDbEntity
  8
0
100
AcDbBlockEnd
  0
BLOCK
  5
3E0
330
3DF
100
AcDbEntity
  8
0
100
AcDbBlockBegin
  2
*D20
 70
     1
 10
0.0
 20
0.0
 30
0.0
  3
*D20
  1

  0
LINE
  5
3E1
330
3DF
100
AcDbEntity
  8
0
 62
     0
100
AcDbLine
 10
8.151935046166482
 20
5.735697706514002
 30
0.0
 11
8.026935046166482
 21
5.735697706514002
 31
0.0
  0
LINE
  5
3E2
330
3DF
100
AcDbEntity
  8
0
 62
     0
100
AcDbLine
 10
8.026935046166482
 20
5.735697706514002
 30
0.0
 11
7.842648746963971
 21
5.580631515589068
 31
0.0
  0
TEXT
  5
3E3
330
3DF
100
AcDbEntity
  8
0
 62
     0
100
AcDbText
 10
8.266939999999999
 20
5.558699999999999
 30
0.0
 40
0.1
  1
%%c0.800
100
AcDbText
  0
SOLID
  5
3E4
330
3DF
100
AcDbEntity
  8
0
 62
     0
100
AcDbTrace
 10
7.829235441498342
 20
5.596572375486312
 30
0.0
 11
7.856062052429598
 21
5.564690655691825
 31
0.0
 12
7.747003587580515
 22
5.5001516827953
 32
0.0
 13
7.747003587580515
 23
5.5001516827953
 33
0.0
  0
LINE
  5
3E5
330
3DF
100
AcDbEntity
  8
0
 62
     0
100
AcDbLine
 10
7.350939077553454
 20
5.242616217855236
 30
0.0
 11
7.53093907755345
 21
5.242616217855235
 31
0.0
  0
LINE
  5
3E6
330
3DF
100
AcDbEntity
  8
0
 62
     0
100
AcDbLine
 10
7.440939077553452
 20
5.152616217855236
 30
0.0
 11
7.440939077553452
 21
5.332616217855233
 31
0.0
  0
POINT
  5
3E7
330
3DF
100
AcDbEntity
  8
DEFPOINTS
 62
     0
100
AcDbPoint
 10
7.747003587580515
 20
5.5001516827953
 30
0.0
  0
POINT
  5
3E8
330
3DF
100
AcDbEntity
  8
DEFPOINTS
 62
     0
100
AcDbPoint
 10
7.134874567526391
 20
4.985080752915171
 30
0.0
  0
ENDBLK
  5
3E9
330
3DF
100
AcDbEntity
  8
0
100
AcDbBlockEnd
  0
BLOCK
  5
3EB
330
3EA
100
AcDbEntity
  8
0
100
AcDbBlockBegin
  2
*D21
 70
     1
 10
0.0
 20
0.0
 30
0.0
  3
*D21
  1

  0
LINE
  5
3EC
330
3EA
100
AcDbEntity
  8
0
 62
     0
100
AcDbLine
 10
8.247266067370336
 20
4.82862936776982
 30
0.0
 11
8.122266067370336
 21
4.828629367769821
 31
0.0
  0
LINE
  5
3ED
330
3EA
100
AcDbEntity
  8
0
 62
     0
100
AcDbLine
 10
8.122266067370336
 20
4.828629367769821
 30
0.0
 11
7.85115051327904
 21
4.993364180752323
 31
0.0
  0
INSERT
  5
3EF
330
3EA
100
AcDbEntity
  8
0
100
AcDbBlockReference
  2
*U22
 10
0.0
 20
0.0
 30
0.0
  0
SOLID
  5
3F0
330
3EA
100
AcDbEntity
  8
0
 62
     0
100
AcDbTrace
 10
7.861968744056076
 20
5.011168496539025
 30
0.0
 11
7.840332282502003
 21
4.975559864965623
 31
0.0
 12
7.744324618558835
 22
5.05827356541454
 32
0.0
 13
7.744324618558835
 23
5.05827356541454
 33
0.0
  0
LINE
  5
3F1
330
3EA
100
AcDbEntity
  8
0
 62
     0
100
AcDbLine
 10
7.350939077553451
 20
5.242616217855236
 30
0.0
 11
7.530939077553449
 21
5.242616217855236
 31
0.0
  0
LINE
  5
3F2
330
3EA
100
AcDbEntity
  8
0
 62
     0
100
AcDbLine
 10
7.44093907755345
 20
5.152616217855235
 30
0.0
 11
7.44093907755345
 21
5.332616217855234
 31
0.0
  0
POINT
  5
3F3
330
3EA
100
AcDbEntity
  8
DEFPOINTS
 62
     0
100
AcDbPoint
 10
7.744324618558835
 20
5.05827356541454
 30
0.0
  0
POINT
  5
3F4
330
3EA
100
AcDbEntity
  8
DEFPOINTS
 62
     0
100
AcDbPoint
 10
7.137553536548067
 20
5.426958870295929
 30
0.0
  0
ENDBLK
  5
3F5
330
3EA
100
AcDbEntity
  8
0
100
AcDbBlockEnd
  0
BLOCK
  5
448
330
3EE
100
AcDbEntity
  8
0
100
AcDbBlockBegin
  2
*U22
 70
     1
 10
0.0
 20
0.0
 30
0.0
  3
*U22
  1

  0
TEXT
  5
449
330
3EE
100
AcDbEntity
  8
0
 62
     0
100
AcDbText
 10
8.337266067370334
 20
4.77862936776982
 30
0.0
 40
0.1
  1
\U+22050.710
100
AcDbText
  0
ENDBLK
  5
44A
330
3EE
100
AcDbEntity
  8
0
100
AcDbBlockEnd
  0
BLOCK
  5
3F7
330
3F6
100
AcDbEntity
  8
0
100
AcDbBlockBegin
  2
*D23
 70
     1
 10
0.0
 20
0.0
 30
0.0
  3
*D23
  1

  0
LINE
  5
3F8
330
3F6
100
AcDbEntity
  8
0
 62
     0
100
AcDbLine
 10
7.370939077553449
 20
5.653146388961133
 30
0.0
 11
7.370939077553449
 21
6.315422722680977
 31
0.0
  0
LINE
  5
3F9
330
3F6
100
AcDbEntity
  8
0
 62
     0
100
AcDbLine
 10
7.510939077553452
 20
5.653146388961133
 30
0.0
 11
7.510939077553452
 21
6.315422722680977
 31
0.0
  0
LINE
  5
3FA
330
3F6
100
AcDbEntity
  8
0
 62
     0
100
AcDbLine
 10
7.245939077553449
 20
6.135422722680977
 30
0.0
 11
7.12093907755345
 21
6.135422722680977
 31
0.0
  0
LINE
  5
3FB
330
3F6
100
AcDbEntity
  8
0
 62
     0
100
AcDbLine
 10
7.635939077553452
 20
6.135422722680977
 30
0.0
 11
7.760939077553452
 21
6.135422722680977
 31
0.0
  0
SOLID
  5
3FC
330
3F6
100
AcDbEntity
  8
0
 62
     0
100
AcDbTrace
 10
7.245939077553449
 20
6.156256056014312
 30
0.0
 11
7.245939077553449
 21
6.114589389347644
 31
0.0
 12
7.370939077553449
 22
6.135422722680977
 32
0.0
 13
7.370939077553449
 23
6.135422722680977
 33
0.0
  0
SOLID
  5
3FD
330
3F6
100
AcDbEntity
  8
0
 62
     0
100
AcDbTrace
 10
7.635939077553452
 20
6.156256056014312
 30
0.0
 11
7.635939077553452
 21
6.114589389347644
 31
0.0
 12
7.510939077553452
 22
6.135422722680977
 32
0.0
 13
7.510939077553452
 23
6.135422722680977
 33
0.0
  0
INSERT
  5
3FF
330
3F6
100
AcDbEntity
  8
0
100
AcDbBlockReference
  2
*U24
 10
0.0
 20
0.0
 30
0.0
  0
POINT
  5
400
330
3F6
100
AcDbEntity
  8
DEFPOINTS
 62
     0
100
AcDbPoint
 10
7.370939077553449
 20
5.590646388961133
 30
0.0
  0
POINT
  5
401
330
3F6
100
AcDbEntity
  8
DEFPOINTS
 62
     0
100
AcDbPoint
 10
7.510939077553452
 20
5.590646388961133
 30
0.0
  0
POINT
  5
402
330
3F6
100
AcDbEntity
  8
DEFPOINTS
 62
     0
100
AcDbPoint
 10
7.510939077553452
 20
6.135422722680977
 30
0.0
  0
ENDBLK
  5
403
330
3F6
100
AcDbEntity
  8
0
100
AcDbBlockEnd
  0
BLOCK
  5
44B
330
3FE
100
AcDbEntity
  8
0
100
AcDbBlockBegin
  2
*U24
 70
     1
 10
0.0
 20
0.0
 30
0.0
  3
*U24
  1

  0
TEXT
  5
44C
330
3FE
100
AcDbEntity
  8
0
 62
     0
100
AcDbText
 10
7.850939077553451
 20
6.085422722680977
 30
0.0
 40
0.1
  1
0.140
100
AcDbText
  0
ENDBLK
  5
44D
330
3FE
100
AcDbEntity
  8
0
100
AcDbBlockEnd
  0
BLOCK
  5
405
330
404
100
AcDbEntity
  8
0
100
AcDbBlockBegin
  2
*D25
 70
     1
 10
0.0
 20
0.0
 30
0.0
  3
*D25
  1

  0
LINE
  5
406
330
404
100
AcDbEntity
  8
0
 62
     0
100
AcDbLine
 10
7.44093907755345
 20
5.180116217855235
 30
0.0
 11
7.44093907755345
 21
4.256591340535731
 31
0.0
  0
LINE
  5
407
330
404
100
AcDbEntity
  8
0
 62
     0
100
AcDbLine
 10
2.440939794271773
 20
5.180116217855235
 30
0.0
 11
2.440939794271773
 21
4.256591340535731
 31
0.0
  0
LINE
  5
408
330
404
100
AcDbEntity
  8
0
 62
     0
100
AcDbLine
 10
7.31593907755345
 20
4.436591340535731
 30
0.0
 11
4.986681177756664
 21
4.436591340535731
 31
0.0
  0
LINE
  5
409
330
404
100
AcDbEntity
  8
0
 62
     0
100
AcDbLine
 10
2.565939794271773
 20
4.436591340535731
 30
0.0
 11
4.456681177756665
 21
4.436591340535731
 31
0.0
  0
SOLID
  5
40A
330
404
100
AcDbEntity
  8
0
 62
     0
100
AcDbTrace
 10
7.31593907755345
 20
4.457424673869064
 30
0.0
 11
7.31593907755345
 21
4.415758007202398
 31
0.0
 12
7.44093907755345
 22
4.436591340535731
 32
0.0
 13
7.44093907755345
 23
4.436591340535731
 33
0.0
  0
SOLID
  5
40B
330
404
100
AcDbEntity
  8
0
 62
     0
100
AcDbTrace
 10
2.565939794271773
 20
4.457424673869064
 30
0.0
 11
2.565939794271773
 21
4.415758007202398
 31
0.0
 12
2.440939794271773
 22
4.436591340535731
 32
0.0
 13
2.440939794271773
 23
4.436591340535731
 33
0.0
  0
INSERT
  5
40D
330
404
100
AcDbEntity
  8
0
100
AcDbBlockReference
  2
*U26
 10
0.0
 20
0.0
 30
0.0
  0
POINT
  5
40E
330
404
100
AcDbEntity
  8
DEFPOINTS
 62
     0
100
AcDbPoint
 10
7.44093907755345
 20
5.242616217855235
 30
0.0
  0
POINT
  5
40F
330
404
100
AcDbEntity
  8
DEFPOINTS
 62
     0
100
AcDbPoint
 10
2.440939794271773
 20
5.242616217855235
 30
0.0
  0
POINT
  5
410
330
404
100
AcDbEntity
  8
DEFPOINTS
 62
     0
100
AcDbPoint
 10
2.440939794271773
 20
4.436591340535731
 30
0.0
  0
ENDBLK
  5
411
330
404
100
AcDbEntity
  8
0
100
AcDbBlockEnd
  0
BLOCK
  5
44E
330
40C
100
AcDbEntity
  8
0
100
AcDbBlockBegin
  2
*U26
 70
     1
 10
0.0
 20
0.0
 30
0.0
  3
*U26
  1

  0
TEXT
  5
44F
330
40C
100
AcDbEntity
  8
0
 62
     0
100
AcDbText
 10
4.546681177756664
 20
4.386591340535731
 30
0.0
 40
0.1
  1
5.000
100
AcDbText
  0
ENDBLK
  5
450
330
40C
100
AcDbEntity
  8
0
100
AcDbBlockEnd
  0
BLOCK
  5
413
330
412
100
AcDbEntity
  8
0
100
AcDbBlockBegin
  2
*U27
 70
     1
 10
0.0
 20
0.0
 30
0.0
  3
*U27
  1

  0
TEXT
  5
414
330
412
100
AcDbEntity
  8
0
100
AcDbText
 10
0.1617083575639957
 20
0.2248826311445387
 30
0.0
 40
0.2166
  1
©
100
AcDbText
  0
TEXT
  5
415
330
412
100
AcDbEntity
  8
0
100
AcDbText
 10
0.3851048104971472
 20
0.2248826311445387
 30
0.0
 40
0.14161308
  1
 Daniel E. Kemp 2010
100
AcDbText
  0
ENDBLK
  5
416
330
412
100
AcDbEntity
  8
0
100
AcDbBlockEnd
  0
BLOCK
  5
418
330
417
100
AcDbEntity
  8
0
100
AcDbBlockBegin
  2
*U28
 70
     1
 10
0.0
 20
0.0
 30
0.0
  3
*U28
  1

  0
TEXT
  5
419
330
417
100
AcDbEntity
  8
0
100
AcDbText
 10
5.744435461786404
 20
0.733570426816339
 30
0.0
 40
0.125
  1
.XX   = +/- .015
100
AcDbText
  0
TEXT
  5
41A
330
417
100
AcDbEntity
  8
0
100
AcDbText
 10
5.744435461786404
 20
0.5252370934830059
 30
0.0
 40
0.125
  1
.XXX  = +/- .005
100
AcDbText
  0
TEXT
  5
41B
330
417
100
AcDbEntity
  8
0
100
AcDbText
 10
5.744435461786404
 20
0.3169037601496724
 30
0.0
 40
0.125
  1
.XXXX = +/- .001
100
AcDbText
  0
ENDBLK
  5
41C
330
417
100
AcDbEntity
  8
0
100
AcDbBlockEnd
  0
BLOCK
  5
41E
330
41D
100
AcDbEntity
  8
0
100
AcDbBlockBegin
  2
*U29
 70
     1
 10
0.0
 20
0.0
 30
0.0
  3
*U29
  1

  0
TEXT
  5
41F
330
41D
100
AcDbEntity
  8
0
 62
     0
100
AcDbText
 10
6.385806615303348
 20
4.130720785103243
 30
0.0
 40
0.1
  1
1.500
100
AcDbText
  0
ENDBLK
  5
420
330
41D
100
AcDbEntity
  8
0
100
AcDbBlockEnd
  0
BLOCK
  5
431
330
430
100
AcDbEntity
  8
0
100
AcDbBlockBegin
  2
*U30
 70
     1
 10
0.0
 20
0.0
 30
0.0
  3
*U30
  1

  0
TEXT
  5
432
330
430
100
AcDbEntity
  8
0
 62
     0
100
AcDbText
 10
7.850939077553451
 20
4.416722919041134
 30
0.0
 40
0.1
  1
0.139
100
AcDbText
  0
ENDBLK
  5
433
330
430
100
AcDbEntity
  8
0
100
AcDbBlockEnd
  0
BLOCK
  5
43B
330
43A
100
AcDbEntity
  8
0
100
AcDbBlockBegin
  2
*U31
 70
     1
 10
0.0
 20
0.0
 30
0.0
  3
*U31
  1

  0
TEXT
  5
43C
330
43A
100
AcDbEntity
  8
0
100
AcDbText
 10
7.931723967554177
 20
0.7010135864398898
 30
0.0
 40
0.1
  1
G0704 Drawbar Wrench
100
AcDbText
  0
TEXT
  5
43D
330
43A
100
AcDbEntity
  8
0
100
AcDbText
 10
7.931723967554177
 20
0.5343469197732233
 30
0.0
 40
0.1
  1
Daniel E. Kemp
100
AcDbText
  0
TEXT
  5
43E
330
43A
100
AcDbEntity
  8
0
100
AcDbText
 10
7.931502344088964
 20
0.357533390896461
 30
0.0
 40
0.1083
  1
©
100
AcDbText
  0
TEXT
  5
43F
330
43A
100
AcDbEntity
  8
0
100
AcDbText
 10
8.043200570555541
 20
0.357533390896461
 30
0.0
 40
0.07080654
  1
 
100
AcDbText
  0
TEXT
  5
440
330
43A
100
AcDbEntity
  8
0
100
AcDbText
 10
8.107263630555541
 20
0.357533390896461
 30
0.0
 40
0.1
  1
05-10-2010
100
AcDbText
  0
ENDBLK
  5
441
330
43A
100
AcDbEntity
  8
0
100
AcDbBlockEnd
  0
ENDSEC
  0
SECTION
  2
ENTITIES
  0
VIEWPORT
  5
453
330
355
100
AcDbEntity
 67
     1
  8
0
100
AcDbViewport
 10
5.000517024349722
 20
3.877608774576548
 30
0.0
 40
18.64316320315717
 41
7.746555744760138
 68
     1
 69
     1
 12
5.000517024349722
 22
3.877608774576548
 13
0.0
 23
0.0
 14
0.5
 24
0.5
 15
0.5
 25
0.5
 16
0.0
 26
0.0
 36
1.0
 17
0.0
 27
0.0
 37
0.0
 42
50.0
 43
0.0
 44
0.0
 45
7.746555744760138
 50
0.0
 51
0.0
 72
   100
 90
    32800
  1

281
     0
 71
     0
 74
     0
110
0.0
120
0.0
130
0.0
111
0.0
121
0.0
131
0.0
112
0.0
122
0.0
132
0.0
 79
     0
146
0.0
  0
VIEWPORT
  5
455
330
355
100
AcDbEntity
 67
     1
  8
0
100
AcDbViewport
 10
5.220628759179897
 20
3.945611818875752
 30
0.0
 40
10.12677662730665
 41
7.573864285437291
 68
     2
 69
     2
 12
6.501601305195084
 22
4.467291948454601
 13
0.0
 23
0.0
 14
0.5
 24
0.5
 15
0.5
 25
0.5
 16
0.0
 26
0.0
 36
1.0
 17
0.0
 27
0.0
 37
0.0
 42
50.0
 43
0.0
 44
0.0
 45
11.10642371389223
 50
0.0
 51
0.0
 72
   100
 90
    32864
  1

281
     0
 71
     0
 74
     0
110
0.0
120
0.0
130
0.0
111
0.0
121
0.0
131
0.0
112
0.0
122
0.0
132
0.0
 79
     0
146
0.0
  0
LWPOLYLINE
  5
456
330
355
100
AcDbEntity
 67
     1
  8
0
100
AcDbPolyline
 90
        4
 70
     1
 43
0.0
 10
7.628825660261667
 20
0.9762250941490862
 10
10.28401707283322
 20
0.9762250941490862
 10
10.28401707283322
 20
0.1586796761571065
 10
7.628825660261667
 20
0.1586796761571065
  0
LWPOLYLINE
  5
45C
330
355
100
AcDbEntity
 67
     1
  8
0
100
AcDbPolyline
 90
        4
 70
     1
 43
0.0
 10
8.014754645876195
 20
0.9762250941490862
 10
8.014754645876195
 20
0.9762250941490862
 10
8.014754645876195
 20
0.9762250941490862
 10
8.014754645876195
 20
0.9762250941490862
  0
INSERT
  5
463
330
355
100
AcDbEntity
 67
     1
  8
0
100
AcDbBlockReference
  2
*U28
 10
0.0
 20
0.0
 30
0.0
  0
LINE
  5
464
330
355
100
AcDbEntity
 67
     1
  8
0
100
AcDbLine
 10
7.628825660261667
 20
0.9762250941490862
 30
0.0
 11
5.614068450537779
 21
0.9762250941490862
 31
0.0
  0
LINE
  5
465
330
355
100
AcDbEntity
 67
     1
  8
0
100
AcDbLine
 10
5.614068450537779
 20
0.9762250941490862
 30
0.0
 11
5.614068450537779
 21
0.1586796761571065
 31
0.0
  0
ARC
  5
466
330
355
100
AcDbEntity
 67
     1
  8
0
100
AcDbCircle
 10
7.44093907755345
 20
5.242616217855236
 30
0.0
 40
0.5625
100
AcDbArc
 50
222.1772245261941
 51
138.5545050798585
  0
ARC
  5
467
330
355
100
AcDbEntity
 67
     1
  8
0
100
AcDbCircle
 10
2.440939794271773
 20
5.239939058405883
 30
0.0
 40
0.375
100
AcDbArc
 50
90.0
 51
270.0
  0
LINE
  5
468
330
355
100
AcDbEntity
 67
     1
  8
0
100
AcDbLine
 10
2.440939794271773
 20
5.614939058405883
 30
0.0
 11
7.01929710572866
 21
5.614939058405883
 31
0.0
  0
LINE
  5
469
330
355
100
AcDbEntity
 67
     1
  8
0
100
AcDbLine
 10
2.440939794271773
 20
4.864939058405883
 30
0.0
 11
7.024086329895157
 21
4.864939058405883
 31
0.0
  0
LINE
  5
46A
330
355
100
AcDbEntity
 67
     1
  8
0
100
AcDbLine
 10
2.065939794271773
 20
3.556172796643415
 30
0.0
 11
8.003439077553453
 21
3.556172796643414
 31
0.0
  0
LINE
  5
46B
330
355
100
AcDbEntity
 67
     1
  8
0
100
AcDbLine
 10
8.003439077553453
 20
3.556172796643414
 30
0.0
 11
8.003439077553453
 21
3.368672796643414
 31
0.0
  0
LINE
  5
46C
330
355
100
AcDbEntity
 67
     1
  8
0
100
AcDbLine
 10
8.003439077553453
 20
3.368672796643414
 30
0.0
 11
2.065939794271773
 21
3.368672796643416
 31
0.0
  0
LINE
  5
46D
330
355
100
AcDbEntity
 67
     1
  8
0
100
AcDbLine
 10
2.065939794271773
 20
3.368672796643416
 30
0.0
 11
2.065939794271773
 21
3.556172796643415
 31
0.0
  0
LINE
  5
46E
330
355
100
AcDbEntity
 67
     1
  8
0
100
AcDbLine
 10
7.024086329895157
 20
3.556172796643414
 30
0.0
 11
7.024086329895157
 21
3.368672796643414
 31
0.0
  0
LINE
  5
46F
330
355
100
AcDbEntity
 67
     1
  8
0
  6
HIDDENX2
100
AcDbLine
 10
7.746355423213247
 20
3.556172796643414
 30
0.0
 11
7.746355423213247
 21
3.368672796643414
 31
0.0
  0
LINE
  5
470
330
355
100
AcDbEntity
 67
     1
  8
0
  6
HIDDENX2
100
AcDbLine
 10
7.06593907755345
 20
3.556172796643414
 30
0.0
 11
7.06593907755345
 21
3.368672796643414
 31
0.0
  0
DIMENSION
  5
471
330
355
100
AcDbEntity
 67
     1
  8
0
100
AcDbDimension
  2
*D2
 10
8.003439077553453
 20
2.228227393157791
 30
0.0
 11
5.177320614183265
 21
2.228227393157791
 31
0.0
 70
   128
 71
     5
 42
-1.0
  3
STANDARD
100
AcDbAlignedDimension
 13
2.065939794271773
 23
3.368672796643416
 33
0.0
 14
8.003439077553453
 24
3.368672796643414
 34
0.0
100
AcDbRotatedDimension
  0
DIMENSION
  5
472
330
355
100
AcDbEntity
 67
     1
  8
0
100
AcDbDimension
  2
*D4
 10
1.683406065406209
 20
3.368672796643416
 30
0.0
 11
1.293406065406208
 21
3.118672796643416
 31
0.0
 70
   128
 71
     5
 42
-1.0
  3
STANDARD
100
AcDbAlignedDimension
 13
2.065939794271773
 23
3.556172796643415
 33
0.0
 14
2.065939794271773
 24
3.368672796643416
 34
0.0
 50
90.0
100
AcDbRotatedDimension
  0
DIMENSION
  5
473
330
355
100
AcDbEntity
 67
     1
  8
0
100
AcDbDimension
  2
*D6
 10
2.440939794271775
 20
5.239939058405886
 30
0.0
 11
1.39262074448449
 21
5.800969579885724
 31
0.0
 70
   132
 71
     5
 42
-1.0
  3
STANDARD
100
AcDbRadialDimension
 15
2.168826452083246
 25
5.497968764065889
 35
0.0
 40
0.0
  0
ARC
  5
475
330
355
100
AcDbEntity
 67
     1
  8
0
100
AcDbCircle
 10
7.440939077553452
 20
5.242616217855236
 30
0.0
 40
0.4
100
AcDbArc
 50
100.085561396787
 51
139.9145546999996
  0
ARC
  5
476
330
355
100
AcDbEntity
 67
     1
  8
0
100
AcDbCircle
 10
7.44093907755345
 20
5.242616217855236
 30
0.0
 40
0.355
100
AcDbArc
 50
198.6277175637657
 51
221.3722824362343
  0
LINE
  5
477
330
355
100
AcDbEntity
 67
     1
  8
0
100
AcDbLine
 10
7.174536108092301
 20
5.007979354037376
 30
0.0
 11
7.1346419243478
 21
4.985357488288848
 31
0.0
  0
LINE
  5
478
330
355
100
AcDbEntity
 67
     1
  8
0
100
AcDbLine
 10
7.104536108092299
 20
5.129222910567198
 30
0.0
 11
7.064874567526389
 21
5.106324309444993
 31
0.0
  0
LINE
  5
479
330
355
100
AcDbEntity
 67
     1
  8
0
100
AcDbLine
 10
7.707342047014601
 20
5.477253081673095
 30
0.0
 11
7.747003587580513
 21
5.500151682795299
 31
0.0
  0
LINE
  5
47A
330
355
100
AcDbEntity
 67
     1
  8
0
100
AcDbLine
 10
7.777342047014602
 20
5.356009525143273
 30
0.0
 11
7.816953737615063
 21
5.378879345374505
 31
0.0
  0
LINE
  5
47B
330
355
100
AcDbEntity
 67
     1
  8
0
100
AcDbLine
 10
7.104536108092299
 20
5.356009525143272
 30
0.0
 11
7.064874567526389
 21
5.378908126265475
 31
0.0
  0
LINE
  5
47C
330
355
100
AcDbEntity
 67
     1
  8
0
100
AcDbLine
 10
7.777336048506827
 20
5.129205116399538
 30
0.0
 11
7.816989060235993
 21
5.106284231423362
 31
0.0
  0
LINE
  5
47D
330
355
100
AcDbEntity
 67
     1
  8
0
100
AcDbLine
 10
7.707250868275576
 20
5.0078758716802
 30
0.0
 11
7.746801876612621
 21
4.984841222652653
 31
0.0
  0
LINE
  5
47E
330
355
100
AcDbEntity
 67
     1
  8
0
100
AcDbLine
 10
7.510939077553452
 20
5.590646388961133
 30
0.0
 11
7.510939077553452
 21
5.63644359120554
 31
0.0
  0
LINE
  5
47F
330
355
100
AcDbEntity
 67
     1
  8
0
100
AcDbLine
 10
7.370939077553449
 20
5.590646388961133
 30
0.0
 11
7.370939077553449
 21
5.636435154388473
 31
0.0
  0
LINE
  5
480
330
355
100
AcDbEntity
 67
     1
  8
0
100
AcDbLine
 10
7.51151133327593
 20
4.894701635346479
 30
0.0
 11
7.51224426629087
 21
4.849023064892532
 31
0.0
  0
LINE
  5
481
330
355
100
AcDbEntity
 67
     1
  8
0
100
AcDbLine
 10
7.370939077553449
 20
4.894586046749337
 30
0.0
 11
7.370939077553449
 21
4.84878884450493
 31
0.0
  0
ARC
  5
482
330
355
100
AcDbEntity
 67
     1
  8
0
100
AcDbCircle
 10
7.440939077553452
 20
5.242616217855236
 30
0.0
 40
0.4
100
AcDbArc
 50
160.0786581077878
 51
199.921341892212
  0
ARC
  5
483
330
355
100
AcDbEntity
 67
     1
  8
0
100
AcDbCircle
 10
7.440939077553452
 20
5.242616217855236
 30
0.0
 40
0.4
100
AcDbArc
 50
220.0268724757789
 51
259.9213418922121
  0
ARC
  5
484
330
355
100
AcDbEntity
 67
     1
  8
0
100
AcDbCircle
 10
7.440939077553452
 20
5.242616217855236
 30
0.0
 40
0.4
100
AcDbArc
 50
280.2685991498007
 51
319.8764866546595
  0
ARC
  5
485
330
355
100
AcDbEntity
 67
     1
  8
0
100
AcDbCircle
 10
7.440939077553452
 20
5.242616217855236
 30
0.0
 40
0.4
100
AcDbArc
 50
340.0725518526608
 51
19.87433541265667
  0
ARC
  5
486
330
355
100
AcDbEntity
 67
     1
  8
0
100
AcDbCircle
 10
7.440939077553452
 20
5.242616217855236
 30
0.0
 40
0.4
100
AcDbArc
 50
40.07865810778777
 51
79.92134189221229
  0
ARC
  5
487
330
355
100
AcDbEntity
 67
     1
  8
0
100
AcDbCircle
 10
7.44093907755345
 20
5.242616217855236
 30
0.0
 40
0.355
100
AcDbArc
 50
258.6277175637656
 51
281.4665078187528
  0
ARC
  5
488
330
355
100
AcDbEntity
 67
     1
  8
0
100
AcDbCircle
 10
7.44093907755345
 20
5.242616217855236
 30
0.0
 40
0.355
100
AcDbArc
 50
318.6054576127042
 51
341.3692517263744
  0
ARC
  5
489
330
355
100
AcDbEntity
 67
     1
  8
0
100
AcDbCircle
 10
7.44093907755345
 20
5.242616217855236
 30
0.0
 40
0.355
100
AcDbArc
 50
18.6277175637656
 51
41.37228243623432
  0
ARC
  5
48A
330
355
100
AcDbEntity
 67
     1
  8
0
100
AcDbCircle
 10
7.44093907755345
 20
5.242616217855236
 30
0.0
 40
0.355
100
AcDbArc
 50
78.62771756376537
 51
101.3722824362343
  0
ARC
  5
48B
330
355
100
AcDbEntity
 67
     1
  8
0
100
AcDbCircle
 10
7.44093907755345
 20
5.242616217855236
 30
0.0
 40
0.355
100
AcDbArc
 50
138.6243490003832
 51
161.3722824362346
  0
LINE
  5
48C
330
355
100
AcDbEntity
 67
     1
  8
0
100
AcDbLine
 10
7.174549903445709
 20
5.477268743770033
 30
0.0
 11
7.134905077029033
 21
5.500187937038494
 31
0.0
  0
DIMENSION
  5
48D
330
355
100
AcDbEntity
 67
     1
  8
0
100
AcDbDimension
  2
*D18
 10
7.795139118584319
 20
4.805639581255826
 30
0.0
 11
6.298052188385653
 21
6.120048698680223
 31
0.0
 70
   131
 71
     5
 42
-1.0
  3
STANDARD
100
AcDbDiametricDimension
 15
7.086739036522584
 25
5.679592854454644
 35
0.0
 40
0.0
  0
DIMENSION
  5
48E
330
355
100
AcDbEntity
 67
     1
  8
0
100
AcDbDimension
  2
*D20
 10
7.134874567526391
 20
4.985080752915171
 30
0.0
 11
8.026935046166482
 21
5.735697706514002
 31
0.0
 70
   131
 71
     5
 42
-1.0
  3
STANDARD
100
AcDbDiametricDimension
 15
7.747003587580515
 25
5.5001516827953
 35
0.0
 40
0.0
1001
ACAD
1000
DSTYLE
1002
{
1070
   287
1070
     4
1070
   279
1070
     1
1002
}
  0
DIMENSION
  5
48F
330
355
100
AcDbEntity
 67
     1
  8
0
100
AcDbDimension
  2
*D21
 10
7.137553536548067
 20
5.426958870295929
 30
0.0
 11
8.553932734037001
 21
4.82862936776982
 31
0.0
 70
   131
 71
     5
 42
-1.0
  3
STANDARD
100
AcDbDiametricDimension
 15
7.744324618558835
 25
5.05827356541454
 35
0.0
 40
0.0
  0
DIMENSION
  5
490
330
355
100
AcDbEntity
 67
     1
  8
0
100
AcDbDimension
  2
*D23
 10
7.510939077553452
 20
6.135422722680977
 30
0.0
 11
8.017605744220118
 21
6.135422722680977
 31
0.0
 70
   128
 71
     5
 42
-1.0
  3
STANDARD
100
AcDbAlignedDimension
 13
7.370939077553449
 23
5.590646388961133
 33
0.0
 14
7.510939077553452
 24
5.590646388961133
 34
0.0
100
AcDbRotatedDimension
  0
DIMENSION
  5
491
330
355
100
AcDbEntity
 67
     1
  8
0
100
AcDbDimension
  2
*D25
 10
2.440939794271773
 20
4.436591340535731
 30
0.0
 11
4.721681177756663
 21
4.436591340535731
 31
0.0
 70
   128
 71
     5
 42
-1.0
  3
STANDARD
100
AcDbAlignedDimension
 13
7.44093907755345
 23
5.242616217855235
 33
0.0
 14
2.440939794271773
 24
5.242616217855235
 34
0.0
100
AcDbRotatedDimension
  0
MTEXT
  5
493
330
355
100
AcDbEntity
 67
     1
  8
0
100
AcDbMText
 10
0.6488397919531792
 20
0.8623862479220818
 30
0.0
 40
0.1625
 41
4.2553
 71
     1
 72
     5
  1
{\fArial|b0|i0|c0|p32;© Daniel E. Kemp 2010}
 73
     1
 44
1.0
  0
MTEXT
  5
495
330
355
100
AcDbEntity
 67
     1
  8
0
100
AcDbMText
 10
7.757288436941691
 20
0.8639561590327673
 30
0.0
 40
0.125
 41
2.655199999999999
 71
     1
 72
     5
  1
G0704 Drawbar Wrench\PDaniel E. Kemp\P{\fArial|b0|i0|c0|p32;\H1.3x;©\fMS Shell Dlg 2|b0|i0|c0|p32;\H0.6538x; }05-10-2010
 73
     1
 44
1.0
  0
ENDSEC
  0
SECTION
  2
OBJECTS
  0
DICTIONARY
  5
347
330
0
100
AcDbDictionary
281
     1
  3
ACAD_GROUP
350
348
  3
ACAD_LAYOUT
350
354
  3
ACAD_MLINESTYLE
350
351
  3
ACAD_PLOTSETTINGS
350
353
  3
ACAD_PLOTSTYLENAME
350
349
  3
AcDbVariableDictionary
350
496
  0
DICTIONARY
  5
348
102
{ACAD_REACTORS
330
347
102
}
330
347
100
AcDbDictionary
281
     1
  0
DICTIONARY
  5
354
102
{ACAD_REACTORS
330
347
102
}
330
347
100
AcDbDictionary
281
     1
  3
Layout1
350
358
  3
Model
350
35C
  0
DICTIONARY
  5
351
102
{ACAD_REACTORS
330
347
102
}
330
347
100
AcDbDictionary
281
     1
  3
Standard
350
352
  0
DICTIONARY
  5
353
102
{ACAD_REACTORS
330
347
102
}
330
347
100
AcDbDictionary
281
     1
  0
ACDBDICTIONARYWDFLT
  5
349
102
{ACAD_REACTORS
330
347
102
}
330
347
100
AcDbDictionary
281
     1
  3
Normal
350
34A
100
AcDbDictionaryWithDefault
340
34A
  0
DICTIONARY
  5
496
102
{ACAD_REACTORS
330
347
102
}
330
347
100
AcDbDictionary
281
     1
  3
DIMASSOC
350
497
  0
LAYOUT
  5
358
102
{ACAD_REACTORS
330
354
102
}
330
354
100
AcDbPlotSettings
  1

  2
EPSON Stylus Photo R200 Series
  4
Letter
  6

 40
3.757083177566528
 41
3.757076978683471
 42
3.757080078125
 43
3.757080078125
 44
215.8999938964843
 45
279.3999938964843
 46
0.0
 47
0.0
 48
0.0
 49
0.0
140
0.0
141
0.0
142
1.0
143
0.9461613047384837
 70
   688
 72
     0
 73
     1
 74
     1
  7

 75
     0
147
1.056902237485179
148
-3.978839613909183
149
-4.017584714760776
100
AcDbLayout
  1
Layout1
 70
     0
 71
     1
 10
0.0166943238261208
 20
0.018219606041867
 11
10.42446844859076
 21
8.060590468960304
 12
0.0
 22
0.0
 32
0.0
 14
0.1566472288940623
 24
0.1581726265653849
 34
-0.0015258207003583
 15
13.10996053147913
 25
7.732635301982057
 35
0.0000000349246037
146
0.0
 13
0.0
 23
0.0
 33
0.0
 16
1.0
 26
0.0
 36
0.0
 17
0.0
 27
1.0
 37
0.0
 76
     0
330
355
331
453
  0
LAYOUT
  5
35C
102
{ACAD_REACTORS
330
354
102
}
330
354
100
AcDbPlotSettings
  1

  2
EPSON Stylus Photo R200 Series
  4

  6

 40
0.0
 41
0.0
 42
0.0
 43
0.0
 44
0.0
 45
0.0
 46
0.0
 47
0.0
 48
0.0
 49
0.0
140
0.0
141
0.0
142
1.0
143
1.0
 70
  1712
 72
     0
 73
     0
 74
     0
  7

 75
     0
147
1.0
148
0.0
149
0.0
100
AcDbLayout
  1
Model
 70
     1
 71
     0
 10
0.0
 20
0.0
 11
12.0
 21
9.0
 12
0.0
 22
0.0
 32
0.0
 14
0.0
 24
0.0
 34
0.0
 15
0.0
 25
0.0
 35
0.0
146
0.0
 13
0.0
 23
0.0
 33
0.0
 16
1.0
 26
0.0
 36
0.0
 17
0.0
 27
1.0
 37
0.0
 76
     0
330
359
  0
MLINESTYLE
  5
352
102
{ACAD_REACTORS
330
351
102
}
330
351
100
AcDbMlineStyle
  2
STANDARD
 70
     0
  3

 62
   256
 51
90.0
 52
90.0
 71
     2
 49
0.5
 62
   256
  6
BYLAYER
 49
-0.5
 62
   256
  6
BYLAYER
  0
ACDBPLACEHOLDER
  5
34A
102
{ACAD_REACTORS
330
349
102
}
330
349
  0
DICTIONARYVAR
  5
497
102
{ACAD_REACTORS
330
496
102
}
330
496
100
DictionaryVariables
280
     0
  1
1
  0
ENDSEC
  0
EOF
