  0
SECTION
  2
HEADER
  9
$ACADVER
  1
AC1015
  9
$ACADMAINTVER
 70
    13
  9
$DWGCODEPAGE
  3
ANSI_1252
  9
$INSBASE
 10
0.0
 20
0.0
 30
0.0
  9
$EXTMIN
 10
1.000000000000000E+20
 20
1.000000000000000E+20
 30
1.000000000000000E+20
  9
$EXTMAX
 10
-1.000000000000000E+20
 20
-1.000000000000000E+20
 30
-1.000000000000000E+20
  9
$LIMMIN
 10
0.0
 20
0.0
  9
$LIMMAX
 10
12.0
 20
9.0
  9
$ORTHOMODE
 70
     0
  9
$REGENMODE
 70
     1
  9
$FILLMODE
 70
     1
  9
$QTEXTMODE
 70
     0
  9
$MIRRTEXT
 70
     1
  9
$LTSCALE
 40
0.3
  9
$ATTMODE
 70
     1
  9
$TEXTSIZE
 40
0.2
  9
$TRACEWID
 40
0.05
  9
$TEXTSTYLE
  7
Standard
  9
$CLAYER
  8
0
  9
$CELTYPE
  6
ByLayer
  9
$CECOLOR
 62
   256
  9
$CELTSCALE
 40
0.3
  9
$DISPSILH
 70
     0
  9
$DIMSCALE
 40
1.0
  9
$DIMASZ
 40
0.125
  9
$DIMEXO
 40
0.0625
  9
$DIMDLI
 40
0.38
  9
$DIMRND
 40
0.0
  9
$DIMDLE
 40
0.0
  9
$DIMEXE
 40
0.18
  9
$DIMTP
 40
0.0
  9
$DIMTM
 40
0.0
  9
$DIMTXT
 40
0.125
  9
$DIMCEN
 40
0.09
  9
$DIMTSZ
 40
0.0
  9
$DIMTOL
 70
     0
  9
$DIMLIM
 70
     0
  9
$DIMTIH
 70
     1
  9
$DIMTOH
 70
     1
  9
$DIMSE1
 70
     0
  9
$DIMSE2
 70
     0
  9
$DIMTAD
 70
     0
  9
$DIMZIN
 70
     0
  9
$DIMBLK
  1

  9
$DIMASO
 70
     1
  9
$DIMSHO
 70
     1
  9
$DIMPOST
  1

  9
$DIMAPOST
  1

  9
$DIMALT
 70
     0
  9
$DIMALTD
 70
     2
  9
$DIMALTF
 40
25.4
  9
$DIMLFAC
 40
1.0
  9
$DIMTOFL
 70
     0
  9
$DIMTVP
 40
0.0
  9
$DIMTIX
 70
     0
  9
$DIMSOXD
 70
     0
  9
$DIMSAH
 70
     0
  9
$DIMBLK1
  1

  9
$DIMBLK2
  1

  9
$DIMSTYLE
  2
Standard
  9
$DIMCLRD
 70
     0
  9
$DIMCLRE
 70
     0
  9
$DIMCLRT
 70
     0
  9
$DIMTFAC
 40
1.0
  9
$DIMGAP
 40
0.09
  9
$DIMJUST
 70
     0
  9
$DIMSD1
 70
     0
  9
$DIMSD2
 70
     0
  9
$DIMTOLJ
 70
     1
  9
$DIMTZIN
 70
     0
  9
$DIMALTZ
 70
     0
  9
$DIMALTTZ
 70
     0
  9
$DIMUPT
 70
     0
  9
$DIMDEC
 70
     3
  9
$DIMTDEC
 70
     3
  9
$DIMALTU
 70
     2
  9
$DIMALTTD
 70
     2
  9
$DIMTXSTY
  7
Standard
  9
$DIMAUNIT
 70
     0
  9
$DIMADEC
 70
     0
  9
$DIMALTRND
 40
0.0
  9
$DIMAZIN
 70
     0
  9
$DIMDSEP
 70
    46
  9
$DIMATFIT
 70
     3
  9
$DIMFRAC
 70
     0
  9
$DIMLDRBLK
  1

  9
$DIMLUNIT
 70
     2
  9
$DIMLWD
 70
    -2
  9
$DIMLWE
 70
    -2
  9
$DIMTMOVE
 70
     0
  9
$LUNITS
 70
     2
  9
$LUPREC
 70
     4
  9
$SKETCHINC
 40
0.1
  9
$FILLETRAD
 40
0.5
  9
$AUNITS
 70
     0
  9
$AUPREC
 70
     0
  9
$MENU
  1
.
  9
$ELEVATION
 40
0.0
  9
$PELEVATION
 40
0.0
  9
$THICKNESS
 40
0.0
  9
$LIMCHECK
 70
     0
  9
$CHAMFERA
 40
0.5
  9
$CHAMFERB
 40
0.5
  9
$CHAMFERC
 40
1.0
  9
$CHAMFERD
 40
0.0
  9
$SKPOLY
 70
     0
  9
$TDCREATE
 40
2454412.621520173
  9
$TDUCREATE
 40
2454412.788186840
  9
$TDUPDATE
 40
2455398.178745752
  9
$TDUUPDATE
 40
2455398.345412419
  9
$TDINDWG
 40
0.0157522106
  9
$TDUSRTIMER
 40
0.0157522106
  9
$USRTIMER
 70
     1
  9
$ANGBASE
 50
0.0
  9
$ANGDIR
 70
     0
  9
$PDMODE
 70
     0
  9
$PDSIZE
 40
0.0
  9
$PLINEWID
 40
0.0
  9
$SPLFRAME
 70
     0
  9
$SPLINETYPE
 70
     6
  9
$SPLINESEGS
 70
     8
  9
$HANDSEED
  5
3AC
  9
$SURFTAB1
 70
     6
  9
$SURFTAB2
 70
     6
  9
$SURFTYPE
 70
     6
  9
$SURFU
 70
     6
  9
$SURFV
 70
     6
  9
$UCSBASE
  2

  9
$UCSNAME
  2

  9
$UCSORG
 10
0.0
 20
0.0
 30
0.0
  9
$UCSXDIR
 10
1.0
 20
0.0
 30
0.0
  9
$UCSYDIR
 10
0.0
 20
1.0
 30
0.0
  9
$UCSORTHOREF
  2

  9
$UCSORTHOVIEW
 70
     0
  9
$UCSORGTOP
 10
0.0
 20
0.0
 30
0.0
  9
$UCSORGBOTTOM
 10
0.0
 20
0.0
 30
0.0
  9
$UCSORGLEFT
 10
0.0
 20
0.0
 30
0.0
  9
$UCSORGRIGHT
 10
0.0
 20
0.0
 30
0.0
  9
$UCSORGFRONT
 10
0.0
 20
0.0
 30
0.0
  9
$UCSORGBACK
 10
0.0
 20
0.0
 30
0.0
  9
$PUCSBASE
  2

  9
$PUCSNAME
  2

  9
$PUCSORG
 10
0.0
 20
0.0
 30
0.0
  9
$PUCSXDIR
 10
1.0
 20
0.0
 30
0.0
  9
$PUCSYDIR
 10
0.0
 20
1.0
 30
0.0
  9
$PUCSORTHOREF
  2

  9
$PUCSORTHOVIEW
 70
     0
  9
$PUCSORGTOP
 10
0.0
 20
0.0
 30
0.0
  9
$PUCSORGBOTTOM
 10
0.0
 20
0.0
 30
0.0
  9
$PUCSORGLEFT
 10
0.0
 20
0.0
 30
0.0
  9
$PUCSORGRIGHT
 10
0.0
 20
0.0
 30
0.0
  9
$PUCSORGFRONT
 10
0.0
 20
0.0
 30
0.0
  9
$PUCSORGBACK
 10
0.0
 20
0.0
 30
0.0
  9
$USERI1
 70
     0
  9
$USERI2
 70
     0
  9
$USERI3
 70
     0
  9
$USERI4
 70
     0
  9
$USERI5
 70
     0
  9
$USERR1
 40
0.0
  9
$USERR2
 40
0.0
  9
$USERR3
 40
0.0
  9
$USERR4
 40
0.0
  9
$USERR5
 40
0.0
  9
$WORLDVIEW
 70
     1
  9
$SHADEDGE
 70
     3
  9
$SHADEDIF
 70
    70
  9
$TILEMODE
 70
     0
  9
$MAXACTVP
 70
    64
  9
$PINSBASE
 10
0.0
 20
0.0
 30
0.0
  9
$PLIMCHECK
 70
     0
  9
$PEXTMIN
 10
-1.439262267973589
 20
-1.41285528304607
 30
0.0
  9
$PEXTMAX
 10
8.966538218833356
 20
6.396855050259421
 30
0.0
  9
$PLIMMIN
 10
-1.75200024029589
 20
-1.757999996245376
  9
$PLIMMAX
 10
9.247999519408217
 20
6.741999763458731
  9
$UNITMODE
 70
     0
  9
$VISRETAIN
 70
     1
  9
$PLINEGEN
 70
     0
  9
$PSLTSCALE
 70
     1
  9
$TREEDEPTH
 70
  3020
  9
$CMLSTYLE
  2
Standard
  9
$CMLJUST
 70
     0
  9
$CMLSCALE
 40
1.0
  9
$PROXYGRAPHICS
 70
     1
  9
$MEASUREMENT
 70
     0
  9
$CELWEIGHT
370
    -1
  9
$ENDCAPS
280
     0
  9
$JOINSTYLE
280
     0
  9
$LWDISPLAY
290
     0
  9
$INSUNITS
 70
     1
  9
$HYPERLINKBASE
  1

  9
$STYLESHEET
  1

  9
$XEDIT
290
     1
  9
$CEPSNTYPE
380
     0
  9
$PSTYLEMODE
290
     1
  9
$FINGERPRINTGUID
  2
{FDEAD576-A652-11D2-9A35-0060089B3A3F}
  9
$VERSIONGUID
  2
{50372953-D3F3-4A26-B38F-A67018559F06}
  9
$EXTNAMES
290
     1
  9
$PSVPSCALE
 40
0.0
  9
$OLESTARTUP
290
     0
  0
ENDSEC
  0
SECTION
  2
CLASSES
  0
CLASS
  1
ACDBDICTIONARYWDFLT
  2
AcDbDictionaryWithDefault
  3
AutoCAD 2000
 90
        0
280
     0
281
     0
  0
CLASS
  1
ACDBPLACEHOLDER
  2
AcDbPlaceHolder
  3
AutoCAD 2000
 90
        0
280
     0
281
     0
  0
CLASS
  1
LAYOUT
  2
AcDbLayout
  3
AutoCAD 2000
 90
        0
280
     0
281
     0
  0
CLASS
  1
DICTIONARYVAR
  2
AcDbDictionaryVar
  3
AutoCAD 2000
 90
        0
280
     0
281
     0
  0
CLASS
  1
DIMASSOC
  2
AcDbDimAssoc
  3
"AcDbDimAssoc|Product Desc:     AcDim ARX App For Dimension|Company:          Autodesk, Inc.|WEB Address:      www.autodesk.com"
 90
        0
280
     0
281
     0
  0
ENDSEC
  0
SECTION
  2
TABLES
  0
TABLE
  2
VPORT
  5
8
330
0
100
AcDbSymbolTable
 70
     1
  0
VPORT
  5
74
330
8
100
AcDbSymbolTableRecord
100
AcDbViewportTableRecord
  2
*Active
 70
     0
 10
0.0
 20
0.0
 11
1.0
 21
1.0
 12
20.48748698095427
 22
9.784138269231398
 13
0.0
 23
0.0
 14
0.5
 24
0.5
 15
0.5
 25
0.5
 16
0.0
 26
0.0
 36
1.0
 17
0.0
 27
0.0
 37
0.0
 40
19.56827653846279
 41
2.093949044585987
 42
50.0
 43
0.0
 44
0.0
 50
0.0
 51
0.0
 71
     0
 72
   100
 73
     1
 74
     3
 75
     0
 76
     0
 77
     0
 78
     0
281
     0
 65
     1
110
0.0
120
0.0
130
0.0
111
1.0
121
0.0
131
0.0
112
0.0
122
1.0
132
0.0
 79
     0
146
0.0
  0
ENDTAB
  0
TABLE
  2
LTYPE
  5
5
330
0
100
AcDbSymbolTable
 70
     4
  0
LTYPE
  5
14
330
5
100
AcDbSymbolTableRecord
100
AcDbLinetypeTableRecord
  2
ByBlock
 70
     0
  3

 72
    65
 73
     0
 40
0.0
  0
LTYPE
  5
15
330
5
100
AcDbSymbolTableRecord
100
AcDbLinetypeTableRecord
  2
ByLayer
 70
     0
  3

 72
    65
 73
     0
 40
0.0
  0
LTYPE
  5
16
330
5
100
AcDbSymbolTableRecord
100
AcDbLinetypeTableRecord
  2
Continuous
 70
     0
  3
Solid line
 72
    65
 73
     0
 40
0.0
  0
LTYPE
  5
92
330
5
100
AcDbSymbolTableRecord
100
AcDbLinetypeTableRecord
  2
HIDDENX2
 70
     0
  3
Hidden (2x) ____ ____ ____ ____ ____ ____ ____
 72
    65
 73
     2
 40
0.75
 49
0.5
 74
     0
 49
-0.25
 74
     0
  0
LTYPE
  5
93
330
5
100
AcDbSymbolTableRecord
100
AcDbLinetypeTableRecord
  2
threads
 70
     0
  3
Zig zag /\/\/\/\/\/\/\/\/\/\/\/\/\/\/\/\/\/\/\/
 72
    65
 73
     4
 40
0.8001000000000001
 49
0.0001
 74
     0
 49
-0.2
 74
     4
 75
   131
340
91
 46
0.2
 50
0.0
 44
-0.2
 45
0.0
 49
-0.4
 74
     4
 75
   131
340
91
 46
0.2
 50
180.0
 44
0.2
 45
0.0
 49
-0.2
 74
     0
  0
LTYPE
  5
18B
330
5
100
AcDbSymbolTableRecord
100
AcDbLinetypeTableRecord
  2
HIDDEN2
 70
     0
  3
Hidden (.5x) _ _ _ _ _ _ _ _ _ _ _ _ _ _ _ _ _
 72
    65
 73
     2
 40
0.1875
 49
0.125
 74
     0
 49
-0.0625
 74
     0
  0
ENDTAB
  0
TABLE
  2
LAYER
  5
2
330
0
100
AcDbSymbolTable
 70
     2
  0
LAYER
  5
10
330
2
100
AcDbSymbolTableRecord
100
AcDbLayerTableRecord
  2
0
 70
     0
 62
     7
  6
Continuous
370
    -3
390
F
  0
LAYER
  5
18C
330
2
100
AcDbSymbolTableRecord
100
AcDbLayerTableRecord
  2
Defpoints
 70
     0
 62
     7
  6
Continuous
290
     0
370
    -3
390
F
  0
ENDTAB
  0
TABLE
  2
STYLE
  5
3
330
0
100
AcDbSymbolTable
 70
     2
  0
STYLE
  5
11
330
3
100
AcDbSymbolTableRecord
100
AcDbTextStyleTableRecord
  2
Standard
 70
     0
 40
0.0
 41
1.0
 50
0.0
 71
     0
 42
0.2
  3
txt
  4

  0
STYLE
  5
91
330
3
100
AcDbSymbolTableRecord
100
AcDbTextStyleTableRecord
  2

 70
     1
 40
0.0
 41
1.0
 50
0.0
 71
     0
 42
0.2
  3
ltypeshp.shx
  4

  0
ENDTAB
  0
TABLE
  2
VIEW
  5
6
330
0
100
AcDbSymbolTable
 70
     0
  0
ENDTAB
  0
TABLE
  2
UCS
  5
7
330
0
100
AcDbSymbolTable
 70
     0
  0
ENDTAB
  0
TABLE
  2
APPID
  5
9
330
0
100
AcDbSymbolTable
 70
     1
  0
APPID
  5
12
330
9
100
AcDbSymbolTableRecord
100
AcDbRegAppTableRecord
  2
ACAD
 70
     0
  0
ENDTAB
  0
TABLE
  2
DIMSTYLE
  5
A
330
0
100
AcDbSymbolTable
 70
     1
100
AcDbDimStyleTable
 71
     1
340
27
  0
DIMSTYLE
105
27
102
{ACAD_REACTORS
330
20B
330
20E
330
211
330
214
330
217
330
21D
330
220
330
223
330
229
330
23D
330
23E
330
251
330
254
330
257
330
25C
330
26B
330
26E
330
271
102
}
330
A
100
AcDbSymbolTableRecord
100
AcDbDimStyleTableRecord
  2
Standard
 70
     0
 41
0.125
140
0.125
271
     3
272
     3
340
11
  0
ENDTAB
  0
TABLE
  2
BLOCK_RECORD
  5
1
330
0
100
AcDbSymbolTable
 70
    38
  0
BLOCK_RECORD
  5
1F
330
1
100
AcDbSymbolTableRecord
100
AcDbBlockTableRecord
  2
*Model_Space
340
22
  0
BLOCK_RECORD
  5
58
330
1
100
AcDbSymbolTableRecord
100
AcDbBlockTableRecord
  2
*Paper_Space
340
59
  0
BLOCK_RECORD
  5
5D
330
1
100
AcDbSymbolTableRecord
100
AcDbBlockTableRecord
  2
*Paper_Space0
340
5E
  0
BLOCK_RECORD
  5
B2
330
1
100
AcDbSymbolTableRecord
100
AcDbBlockTableRecord
  2
*D1
340
0
  0
BLOCK_RECORD
  5
BF
330
1
100
AcDbSymbolTableRecord
100
AcDbBlockTableRecord
  2
*D2
340
0
  0
BLOCK_RECORD
  5
CC
330
1
100
AcDbSymbolTableRecord
100
AcDbBlockTableRecord
  2
*D3
340
0
  0
BLOCK_RECORD
  5
D9
330
1
100
AcDbSymbolTableRecord
100
AcDbBlockTableRecord
  2
*D4
340
0
  0
BLOCK_RECORD
  5
E6
330
1
100
AcDbSymbolTableRecord
100
AcDbBlockTableRecord
  2
*D5
340
0
  0
BLOCK_RECORD
  5
F1
330
1
100
AcDbSymbolTableRecord
100
AcDbBlockTableRecord
  2
*D6
340
0
  0
BLOCK_RECORD
  5
FC
330
1
100
AcDbSymbolTableRecord
100
AcDbBlockTableRecord
  2
*D7
340
0
  0
BLOCK_RECORD
  5
107
330
1
100
AcDbSymbolTableRecord
100
AcDbBlockTableRecord
  2
*D8
340
0
  0
BLOCK_RECORD
  5
112
330
1
100
AcDbSymbolTableRecord
100
AcDbBlockTableRecord
  2
*D9
340
0
  0
BLOCK_RECORD
  5
11D
330
1
100
AcDbSymbolTableRecord
100
AcDbBlockTableRecord
  2
*D10
340
0
  0
BLOCK_RECORD
  5
127
330
1
100
AcDbSymbolTableRecord
100
AcDbBlockTableRecord
  2
*D11
340
0
  0
BLOCK_RECORD
  5
132
330
1
100
AcDbSymbolTableRecord
100
AcDbBlockTableRecord
  2
*D12
340
0
  0
BLOCK_RECORD
  5
13C
330
1
100
AcDbSymbolTableRecord
100
AcDbBlockTableRecord
  2
*D13
340
0
  0
BLOCK_RECORD
  5
14A
330
1
100
AcDbSymbolTableRecord
100
AcDbBlockTableRecord
  2
*D14
340
0
  0
BLOCK_RECORD
  5
159
330
1
100
AcDbSymbolTableRecord
100
AcDbBlockTableRecord
  2
*D15
340
0
  0
BLOCK_RECORD
  5
166
330
1
100
AcDbSymbolTableRecord
100
AcDbBlockTableRecord
  2
*D16
340
0
  0
BLOCK_RECORD
  5
173
330
1
100
AcDbSymbolTableRecord
100
AcDbBlockTableRecord
  2
*D17
340
0
  0
BLOCK_RECORD
  5
17E
330
1
100
AcDbSymbolTableRecord
100
AcDbBlockTableRecord
  2
*D18
340
0
  0
BLOCK_RECORD
  5
283
330
1
100
AcDbSymbolTableRecord
100
AcDbBlockTableRecord
  2
*D20
340
0
  0
BLOCK_RECORD
  5
290
330
1
100
AcDbSymbolTableRecord
100
AcDbBlockTableRecord
  2
*D21
340
0
  0
BLOCK_RECORD
  5
29A
330
1
100
AcDbSymbolTableRecord
100
AcDbBlockTableRecord
  2
*D22
340
0
  0
BLOCK_RECORD
  5
2A5
330
1
100
AcDbSymbolTableRecord
100
AcDbBlockTableRecord
  2
*D23
340
0
  0
BLOCK_RECORD
  5
2AF
330
1
100
AcDbSymbolTableRecord
100
AcDbBlockTableRecord
  2
*D24
340
0
  0
BLOCK_RECORD
  5
2BA
330
1
100
AcDbSymbolTableRecord
100
AcDbBlockTableRecord
  2
*D25
340
0
  0
BLOCK_RECORD
  5
2C5
330
1
100
AcDbSymbolTableRecord
100
AcDbBlockTableRecord
  2
*D26
340
0
  0
BLOCK_RECORD
  5
2D2
330
1
100
AcDbSymbolTableRecord
100
AcDbBlockTableRecord
  2
*D27
340
0
  0
BLOCK_RECORD
  5
2E1
330
1
100
AcDbSymbolTableRecord
100
AcDbBlockTableRecord
  2
*D28
340
0
  0
BLOCK_RECORD
  5
2EC
330
1
100
AcDbSymbolTableRecord
100
AcDbBlockTableRecord
  2
*D29
340
0
  0
BLOCK_RECORD
  5
303
330
1
100
AcDbSymbolTableRecord
100
AcDbBlockTableRecord
  2
*D30
340
0
  0
BLOCK_RECORD
  5
30E
330
1
100
AcDbSymbolTableRecord
100
AcDbBlockTableRecord
  2
*D31
340
0
  0
BLOCK_RECORD
  5
319
330
1
100
AcDbSymbolTableRecord
100
AcDbBlockTableRecord
  2
*D32
340
0
  0
BLOCK_RECORD
  5
324
330
1
100
AcDbSymbolTableRecord
100
AcDbBlockTableRecord
  2
*D33
340
0
  0
BLOCK_RECORD
  5
331
330
1
100
AcDbSymbolTableRecord
100
AcDbBlockTableRecord
  2
*D34
340
0
  0
BLOCK_RECORD
  5
33E
330
1
100
AcDbSymbolTableRecord
100
AcDbBlockTableRecord
  2
*D35
340
0
  0
BLOCK_RECORD
  5
34B
330
1
100
AcDbSymbolTableRecord
100
AcDbBlockTableRecord
  2
*D36
340
0
  0
BLOCK_RECORD
  5
358
330
1
100
AcDbSymbolTableRecord
100
AcDbBlockTableRecord
  2
*D37
340
0
  0
ENDTAB
  0
ENDSEC
  0
SECTION
  2
BLOCKS
  0
BLOCK
  5
20
330
1F
100
AcDbEntity
  8
0
100
AcDbBlockBegin
  2
*Model_Space
 70
     0
 10
0.0
 20
0.0
 30
0.0
  3
*Model_Space
  1

  0
ENDBLK
  5
21
330
1F
100
AcDbEntity
  8
0
100
AcDbBlockEnd
  0
BLOCK
  5
5A
330
58
100
AcDbEntity
 67
     1
  8
0
100
AcDbBlockBegin
  2
*Paper_Space
 70
     0
 10
0.0
 20
0.0
 30
0.0
  3
*Paper_Space
  1

  0
ENDBLK
  5
5B
330
58
100
AcDbEntity
 67
     1
  8
0
100
AcDbBlockEnd
  0
BLOCK
  5
5F
330
5D
100
AcDbEntity
  8
0
100
AcDbBlockBegin
  2
*Paper_Space0
 70
     0
 10
0.0
 20
0.0
 30
0.0
  3
*Paper_Space0
  1

  0
ENDBLK
  5
60
330
5D
100
AcDbEntity
  8
0
100
AcDbBlockEnd
  0
BLOCK
  5
BD
330
B2
100
AcDbEntity
  8
0
 48
0.3
100
AcDbBlockBegin
  2
*D1
 70
     1
 10
0.0
 20
0.0
 30
0.0
  3
*D1
  1

  0
LINE
  5
B3
330
B2
100
AcDbEntity
  8
0
 62
     0
 48
0.3
370
    -2
100
AcDbLine
 10
2.454520017962067
 20
2.462041122463464
 30
0.0
 11
2.454520017962067
 21
2.885187812907141
 31
0.0
  0
LINE
  5
B4
330
B2
100
AcDbEntity
  8
0
 62
     0
 48
0.3
370
    -2
100
AcDbLine
 10
2.829520017962067
 20
2.462041122463464
 30
0.0
 11
2.829520017962067
 21
2.885187812907141
 31
0.0
  0
LINE
  5
B5
330
B2
100
AcDbEntity
  8
0
 62
     0
 48
0.3
370
    -2
100
AcDbLine
 10
2.274520017962067
 20
2.705187812907141
 30
0.0
 11
2.094520017962067
 21
2.705187812907141
 31
0.0
  0
LINE
  5
B6
330
B2
100
AcDbEntity
  8
0
 62
     0
 48
0.3
370
    -2
100
AcDbLine
 10
3.009520017962068
 20
2.705187812907141
 30
0.0
 11
3.189520017962068
 21
2.705187812907141
 31
0.0
  0
SOLID
  5
B7
330
B2
100
AcDbEntity
  8
0
 62
     0
 48
0.3
100
AcDbTrace
 10
2.274520017962067
 20
2.73518781290714
 30
0.0
 11
2.274520017962067
 21
2.675187812907141
 31
0.0
 12
2.454520017962067
 22
2.705187812907141
 32
0.0
 13
2.454520017962067
 23
2.705187812907141
 33
0.0
  0
SOLID
  5
B8
330
B2
100
AcDbEntity
  8
0
 62
     0
 48
0.3
100
AcDbTrace
 10
3.009520017962068
 20
2.73518781290714
 30
0.0
 11
3.009520017962068
 21
2.675187812907141
 31
0.0
 12
2.829520017962067
 22
2.705187812907141
 32
0.0
 13
2.829520017962067
 23
2.705187812907141
 33
0.0
  0
MTEXT
  5
B9
330
B2
100
AcDbEntity
  8
0
 62
     0
 48
0.3
100
AcDbMText
 10
3.699520017962067
 20
2.705187812907141
 30
0.0
 40
0.18
 41
0.0
 71
     5
 72
     1
  1
\A1;0.3750
 73
     1
 44
1.0
  0
POINT
  5
BA
330
B2
100
AcDbEntity
  8
Defpoints
 62
     0
 48
0.3
100
AcDbPoint
 10
2.454520017962067
 20
2.399541122463464
 30
0.0
  0
POINT
  5
BB
330
B2
100
AcDbEntity
  8
Defpoints
 62
     0
 48
0.3
100
AcDbPoint
 10
2.829520017962067
 20
2.399541122463464
 30
0.0
  0
POINT
  5
BC
330
B2
100
AcDbEntity
  8
Defpoints
 62
     0
 48
0.3
100
AcDbPoint
 10
2.829520017962067
 20
2.705187812907141
 30
0.0
  0
ENDBLK
  5
BE
330
B2
100
AcDbEntity
  8
0
 48
0.3
100
AcDbBlockEnd
  0
BLOCK
  5
CA
330
BF
100
AcDbEntity
  8
0
 48
0.3
100
AcDbBlockBegin
  2
*D2
 70
     1
 10
0.0
 20
0.0
 30
0.0
  3
*D2
  1

  0
LINE
  5
C0
330
BF
100
AcDbEntity
  8
0
 62
     0
 48
0.3
370
    -2
100
AcDbLine
 10
2.892020017962067
 20
2.399541122463464
 30
0.0
 11
4.054585152278769
 21
2.399541122463463
 31
0.0
  0
LINE
  5
C1
330
BF
100
AcDbEntity
  8
0
 62
     0
 48
0.3
370
    -2
100
AcDbLine
 10
2.892020017962067
 20
-2.100458877536534
 30
0.0
 11
4.054585152278767
 21
-2.100458877536535
 31
0.0
  0
LINE
  5
C2
330
BF
100
AcDbEntity
  8
0
 62
     0
 48
0.3
370
    -2
100
AcDbLine
 10
3.874585152278769
 20
2.219541122463463
 30
0.0
 11
3.874585152278768
 21
0.1495411224634637
 31
0.0
  0
LINE
  5
C3
330
BF
100
AcDbEntity
  8
0
 62
     0
 48
0.3
370
    -2
100
AcDbLine
 10
3.874585152278768
 20
-1.920458877536535
 30
0.0
 11
3.874585152278768
 21
-0.2104588775365363
 31
0.0
  0
SOLID
  5
C4
330
BF
100
AcDbEntity
  8
0
 62
     0
 48
0.3
100
AcDbTrace
 10
3.844585152278769
 20
2.219541122463463
 30
0.0
 11
3.904585152278769
 21
2.219541122463463
 31
0.0
 12
3.874585152278769
 22
2.399541122463463
 32
0.0
 13
3.874585152278769
 23
2.399541122463463
 33
0.0
  0
SOLID
  5
C5
330
BF
100
AcDbEntity
  8
0
 62
     0
 48
0.3
100
AcDbTrace
 10
3.844585152278768
 20
-1.920458877536535
 30
0.0
 11
3.904585152278768
 21
-1.920458877536535
 31
0.0
 12
3.874585152278768
 22
-2.100458877536535
 32
0.0
 13
3.874585152278768
 23
-2.100458877536535
 33
0.0
  0
MTEXT
  5
C6
330
BF
100
AcDbEntity
  8
0
 62
     0
 48
0.3
100
AcDbMText
 10
3.874585152278768
 20
-0.0304588775365357
 30
0.0
 40
0.18
 41
0.0
 71
     5
 72
     1
  1
\A1;4.5000
 73
     1
 44
1.0
  0
POINT
  5
C7
330
BF
100
AcDbEntity
  8
Defpoints
 62
     0
 48
0.3
100
AcDbPoint
 10
2.829520017962067
 20
2.399541122463464
 30
0.0
  0
POINT
  5
C8
330
BF
100
AcDbEntity
  8
Defpoints
 62
     0
 48
0.3
100
AcDbPoint
 10
2.829520017962067
 20
-2.100458877536534
 30
0.0
  0
POINT
  5
C9
330
BF
100
AcDbEntity
  8
Defpoints
 62
     0
 48
0.3
100
AcDbPoint
 10
3.874585152278768
 20
-2.100458877536535
 30
0.0
  0
ENDBLK
  5
CB
330
BF
100
AcDbEntity
  8
0
 48
0.3
100
AcDbBlockEnd
  0
BLOCK
  5
D7
330
CC
100
AcDbEntity
  8
0
 48
0.3
100
AcDbBlockBegin
  2
*D3
 70
     1
 10
0.0
 20
0.0
 30
0.0
  3
*D3
  1

  0
LINE
  5
CD
330
CC
100
AcDbEntity
  8
0
 62
     0
 48
0.3
370
    -2
100
AcDbLine
 10
2.579520017962067
 20
0.6955598388749707
 30
0.0
 11
2.579520017962067
 21
3.065187812907141
 31
0.0
  0
LINE
  5
CE
330
CC
100
AcDbEntity
  8
0
 62
     0
 48
0.3
370
    -2
100
AcDbLine
 10
2.454520017962067
 20
0.6955598388749707
 30
0.0
 11
2.454520017962067
 21
3.065187812907141
 31
0.0
  0
LINE
  5
CF
330
CC
100
AcDbEntity
  8
0
 62
     0
 48
0.3
370
    -2
100
AcDbLine
 10
2.759520017962068
 20
2.885187812907141
 30
0.0
 11
2.939520017962067
 21
2.885187812907141
 31
0.0
  0
LINE
  5
D0
330
CC
100
AcDbEntity
  8
0
 62
     0
 48
0.3
370
    -2
100
AcDbLine
 10
2.274520017962067
 20
2.885187812907141
 30
0.0
 11
2.094520017962067
 21
2.885187812907141
 31
0.0
  0
SOLID
  5
D1
330
CC
100
AcDbEntity
  8
0
 62
     0
 48
0.3
100
AcDbTrace
 10
2.759520017962068
 20
2.915187812907141
 30
0.0
 11
2.759520017962068
 21
2.855187812907141
 31
0.0
 12
2.579520017962067
 22
2.885187812907141
 32
0.0
 13
2.579520017962067
 23
2.885187812907141
 33
0.0
  0
SOLID
  5
D2
330
CC
100
AcDbEntity
  8
0
 62
     0
 48
0.3
100
AcDbTrace
 10
2.274520017962067
 20
2.915187812907141
 30
0.0
 11
2.274520017962067
 21
2.855187812907141
 31
0.0
 12
2.454520017962067
 22
2.885187812907141
 32
0.0
 13
2.454520017962067
 23
2.885187812907141
 33
0.0
  0
MTEXT
  5
D3
330
CC
100
AcDbEntity
  8
0
 62
     0
 48
0.3
100
AcDbMText
 10
1.614520017962068
 20
2.885187812907141
 30
0.0
 40
0.18
 41
0.0
 71
     5
 72
     1
  1
\A1;0.1250
 73
     1
 44
1.0
  0
POINT
  5
D4
330
CC
100
AcDbEntity
  8
Defpoints
 62
     0
 48
0.3
100
AcDbPoint
 10
2.579520017962067
 20
0.6330598388749707
 30
0.0
  0
POINT
  5
D5
330
CC
100
AcDbEntity
  8
Defpoints
 62
     0
 48
0.3
100
AcDbPoint
 10
2.454520017962067
 20
0.6330598388749707
 30
0.0
  0
POINT
  5
D6
330
CC
100
AcDbEntity
  8
Defpoints
 62
     0
 48
0.3
100
AcDbPoint
 10
2.454520017962067
 20
2.885187812907141
 30
0.0
  0
ENDBLK
  5
D8
330
CC
100
AcDbEntity
  8
0
 48
0.3
100
AcDbBlockEnd
  0
BLOCK
  5
E4
330
D9
100
AcDbEntity
  8
0
 48
0.3
100
AcDbBlockBegin
  2
*D4
 70
     1
 10
0.0
 20
0.0
 30
0.0
  3
*D4
  1

  0
LINE
  5
DA
330
D9
100
AcDbEntity
  8
0
 62
     0
 48
0.3
370
    -2
100
AcDbLine
 10
-1.859821672239342
 20
-1.893710483950041
 30
0.0
 11
-1.859821672239342
 21
-2.653341171823491
 31
0.0
  0
LINE
  5
DB
330
D9
100
AcDbEntity
  8
0
 62
     0
 48
0.3
370
    -2
100
AcDbLine
 10
-0.3598216722393435
 20
-1.893710483950042
 30
0.0
 11
-0.3598216722393435
 21
-2.653341171823491
 31
0.0
  0
LINE
  5
DC
330
D9
100
AcDbEntity
  8
0
 62
     0
 48
0.3
370
    -2
100
AcDbLine
 10
-1.679821672239342
 20
-2.473341171823491
 30
0.0
 11
-1.574821672239342
 21
-2.473341171823491
 31
0.0
  0
LINE
  5
DD
330
D9
100
AcDbEntity
  8
0
 62
     0
 48
0.3
370
    -2
100
AcDbLine
 10
-0.5398216722393436
 20
-2.473341171823491
 30
0.0
 11
-0.6448216722393431
 21
-2.473341171823491
 31
0.0
  0
SOLID
  5
DE
330
D9
100
AcDbEntity
  8
0
 62
     0
 48
0.3
100
AcDbTrace
 10
-1.679821672239342
 20
-2.443341171823492
 30
0.0
 11
-1.679821672239342
 21
-2.503341171823491
 31
0.0
 12
-1.859821672239342
 22
-2.473341171823491
 32
0.0
 13
-1.859821672239342
 23
-2.473341171823491
 33
0.0
  0
SOLID
  5
DF
330
D9
100
AcDbEntity
  8
0
 62
     0
 48
0.3
100
AcDbTrace
 10
-0.5398216722393436
 20
-2.443341171823492
 30
0.0
 11
-0.5398216722393436
 21
-2.503341171823491
 31
0.0
 12
-0.3598216722393435
 22
-2.473341171823491
 32
0.0
 13
-0.3598216722393435
 23
-2.473341171823491
 33
0.0
  0
MTEXT
  5
E0
330
D9
100
AcDbEntity
  8
0
 62
     0
 48
0.3
100
AcDbMText
 10
-1.109821672239343
 20
-2.473341171823491
 30
0.0
 40
0.18
 41
0.0
 71
     5
 72
     1
  1
\A1;1.5000
 73
     1
 44
1.0
  0
POINT
  5
E1
330
D9
100
AcDbEntity
  8
Defpoints
 62
     0
 48
0.3
100
AcDbPoint
 10
-1.859821672239342
 20
-1.831210483950041
 30
0.0
  0
POINT
  5
E2
330
D9
100
AcDbEntity
  8
Defpoints
 62
     0
 48
0.3
100
AcDbPoint
 10
-0.3598216722393435
 20
-1.831210483950042
 30
0.0
  0
POINT
  5
E3
330
D9
100
AcDbEntity
  8
Defpoints
 62
     0
 48
0.3
100
AcDbPoint
 10
-0.3598216722393435
 20
-2.473341171823491
 30
0.0
  0
ENDBLK
  5
E5
330
D9
100
AcDbEntity
  8
0
 48
0.3
100
AcDbBlockEnd
  0
BLOCK
  5
EF
330
E6
100
AcDbEntity
  8
0
 48
0.3
100
AcDbBlockBegin
  2
*D5
 70
     1
 10
0.0
 20
0.0
 30
0.0
  3
*D5
  1

  0
LINE
  5
E7
330
E6
100
AcDbEntity
  8
0
 62
     0
 48
0.3
370
    -2
100
AcDbLine
 10
-1.942010722838155
 20
2.684327852083668
 30
0.0
 11
-1.762010722838155
 21
2.684327852083668
 31
0.0
  0
LINE
  5
E8
330
E6
100
AcDbEntity
  8
0
 62
     0
 48
0.3
370
    -2
100
AcDbLine
 10
-1.762010722838155
 20
2.684327852083668
 30
0.0
 11
-1.354604017938105
 21
2.381493322873929
 31
0.0
  0
MTEXT
  5
E9
330
E6
100
AcDbEntity
  8
0
 62
     0
 48
0.3
100
AcDbMText
 10
-2.527010722838156
 20
2.684327852083669
 30
0.0
 40
0.18
 41
0.0
 71
     5
 72
     1
  1
\A1;\U+22050.2500
 73
     1
 44
1.0
  0
SOLID
  5
EA
330
E6
100
AcDbEntity
  8
0
 62
     0
 48
0.3
100
AcDbTrace
 10
-1.336707080192813
 20
2.405570274909873
 30
0.0
 11
-1.372500955683397
 21
2.357416370837985
 31
0.0
 12
-1.21014230572244
 22
2.274111696402179
 32
0.0
 13
-1.21014230572244
 23
2.274111696402179
 33
0.0
  0
LINE
  5
EB
330
E6
100
AcDbEntity
  8
0
 62
     0
 48
0.3
370
    -2
100
AcDbLine
 10
-1.199821672239339
 20
2.199541122463464
 30
0.0
 11
-1.019821672239339
 21
2.199541122463463
 31
0.0
  0
LINE
  5
EC
330
E6
100
AcDbEntity
  8
0
 62
     0
 48
0.3
370
    -2
100
AcDbLine
 10
-1.109821672239339
 20
2.109541122463463
 30
0.0
 11
-1.109821672239339
 21
2.289541122463464
 31
0.0
  0
POINT
  5
ED
330
E6
100
AcDbEntity
  8
Defpoints
 62
     0
 48
0.3
100
AcDbPoint
 10
-1.21014230572244
 20
2.274111696402179
 30
0.0
  0
POINT
  5
EE
330
E6
100
AcDbEntity
  8
Defpoints
 62
     0
 48
0.3
100
AcDbPoint
 10
-1.009501038756239
 20
2.124970548524748
 30
0.0
  0
ENDBLK
  5
F0
330
E6
100
AcDbEntity
  8
0
 48
0.3
100
AcDbBlockEnd
  0
BLOCK
  5
FA
330
F1
100
AcDbEntity
  8
0
 48
0.3
100
AcDbBlockBegin
  2
*D6
 70
     1
 10
0.0
 20
0.0
 30
0.0
  3
*D6
  1

  0
LINE
  5
F2
330
F1
100
AcDbEntity
  8
0
 62
     0
 48
0.3
370
    -2
100
AcDbLine
 10
0.389469376934386
 20
-1.26939417471188
 30
0.0
 11
0.2094693769343856
 21
-1.26939417471188
 31
0.0
  0
LINE
  5
F3
330
F1
100
AcDbEntity
  8
0
 62
     0
 48
0.3
370
    -2
100
AcDbLine
 10
0.2094693769343856
 20
-1.26939417471188
 30
0.0
 11
-0.3914464170763573
 21
-0.6230920329016915
 31
0.0
  0
MTEXT
  5
F4
330
F1
100
AcDbEntity
  8
0
 62
     0
 48
0.3
100
AcDbMText
 10
0.959469376934386
 20
-1.26939417471188
 30
0.0
 40
0.18
 41
0.0
 71
     5
 72
     1
  1
\A1;\U+22051.7500
 73
     1
 44
1.0
  0
SOLID
  5
F5
330
F1
100
AcDbEntity
  8
0
 62
     0
 48
0.3
100
AcDbTrace
 10
-0.3694758060233197
 20
-0.6026643005273887
 30
0.0
 11
-0.413417028129395
 21
-0.6435197652759943
 31
0.0
 12
-0.5140128113221746
 22
-0.4912683665834658
 32
0.0
 13
-0.5140128113221746
 23
-0.4912683665834658
 33
0.0
  0
LINE
  5
F6
330
F1
100
AcDbEntity
  8
0
 62
     0
 48
0.3
370
    -2
100
AcDbLine
 10
-1.199821672239341
 20
0.1495411224634643
 30
0.0
 11
-1.019821672239341
 21
0.1495411224634643
 31
0.0
  0
LINE
  5
F7
330
F1
100
AcDbEntity
  8
0
 62
     0
 48
0.3
370
    -2
100
AcDbLine
 10
-1.109821672239341
 20
0.0595411224634643
 30
0.0
 11
-1.109821672239341
 21
0.2395411224634643
 31
0.0
  0
POINT
  5
F8
330
F1
100
AcDbEntity
  8
Defpoints
 62
     0
 48
0.3
100
AcDbPoint
 10
-0.5140128113221746
 20
-0.4912683665834658
 30
0.0
  0
POINT
  5
F9
330
F1
100
AcDbEntity
  8
Defpoints
 62
     0
 48
0.3
100
AcDbPoint
 10
-1.705630533156509
 20
0.7903506115103945
 30
0.0
  0
ENDBLK
  5
FB
330
F1
100
AcDbEntity
  8
0
 48
0.3
100
AcDbBlockEnd
  0
BLOCK
  5
105
330
FC
100
AcDbEntity
  8
0
 48
0.3
100
AcDbBlockBegin
  2
*D7
 70
     1
 10
0.0
 20
0.0
 30
0.0
  3
*D7
  1

  0
LINE
  5
FD
330
FC
100
AcDbEntity
  8
0
 62
     0
 48
0.3
370
    -2
100
AcDbLine
 10
-2.578332991860253
 20
-2.278777599915367
 30
0.0
 11
-2.398332991860253
 21
-2.278777599915366
 31
0.0
  0
LINE
  5
FE
330
FC
100
AcDbEntity
  8
0
 62
     0
 48
0.3
370
    -2
100
AcDbLine
 10
-2.398332991860253
 20
-2.278777599915366
 30
0.0
 11
-2.348562168355583
 21
-2.105795331668974
 31
0.0
  0
MTEXT
  5
FF
330
FC
100
AcDbEntity
  8
0
 62
     0
 48
0.3
100
AcDbMText
 10
-3.163332991860253
 20
-2.278777599915366
 30
0.0
 40
0.18
 41
0.0
 71
     5
 72
     1
  1
\A1;R4.3000
 73
     1
 44
1.0
  0
SOLID
  5
100
330
FC
100
AcDbEntity
  8
0
 62
     0
 48
0.3
100
AcDbTrace
 10
-2.377392546396648
 20
-2.097500194418196
 30
0.0
 11
-2.319731790314517
 21
-2.114090468919752
 31
0.0
 12
-2.298791344850912
 22
-1.932813063422581
 32
0.0
 13
-2.298791344850912
 23
-1.932813063422581
 33
0.0
  0
LINE
  5
101
330
FC
100
AcDbEntity
  8
0
 62
     0
 48
0.3
370
    -2
100
AcDbLine
 10
-1.199821672239345
 20
2.199541122463469
 30
0.0
 11
-1.019821672239345
 21
2.199541122463469
 31
0.0
  0
LINE
  5
102
330
FC
100
AcDbEntity
  8
0
 62
     0
 48
0.3
370
    -2
100
AcDbLine
 10
-1.109821672239345
 20
2.109541122463469
 30
0.0
 11
-1.109821672239345
 21
2.289541122463469
 31
0.0
  0
POINT
  5
103
330
FC
100
AcDbEntity
  8
Defpoints
 62
     0
 48
0.3
100
AcDbPoint
 10
-2.298791344850912
 20
-1.932813063422581
 30
0.0
  0
POINT
  5
104
330
FC
100
AcDbEntity
  8
Defpoints
 62
     0
 48
0.3
100
AcDbPoint
 10
-1.109821672239345
 20
2.199541122463469
 30
0.0
  0
ENDBLK
  5
106
330
FC
100
AcDbEntity
  8
0
 48
0.3
100
AcDbBlockEnd
  0
BLOCK
  5
110
330
107
100
AcDbEntity
  8
0
 48
0.3
100
AcDbBlockBegin
  2
*D8
 70
     1
 10
0.0
 20
0.0
 30
0.0
  3
*D8
  1

  0
LINE
  5
108
330
107
100
AcDbEntity
  8
0
 62
     0
 48
0.3
370
    -2
100
AcDbLine
 10
-0.1870725569438594
 20
2.65162500429632
 30
0.0
 11
-0.3670725569438594
 21
2.65162500429632
 31
0.0
  0
LINE
  5
109
330
107
100
AcDbEntity
  8
0
 62
     0
 48
0.3
370
    -2
100
AcDbLine
 10
-0.3670725569438594
 20
2.65162500429632
 30
0.0
 11
-0.4182966338607893
 21
2.479067495204399
 31
0.0
  0
MTEXT
  5
10A
330
107
100
AcDbEntity
  8
0
 62
     0
 48
0.3
100
AcDbMText
 10
0.4129274430561402
 20
2.65162500429632
 30
0.0
 40
0.18
 41
0.0
 71
     5
 72
     1
  1
\A1;R2.2500
 73
     1
 44
1.0
  0
SOLID
  5
10B
330
107
100
AcDbEntity
  8
0
 62
     0
 48
0.3
100
AcDbTrace
 10
-0.4470562187094427
 20
2.487604841357221
 30
0.0
 11
-0.3895370490121357
 21
2.470530149051578
 31
0.0
 12
-0.4695207107777191
 22
2.306509986112478
 32
0.0
 13
-0.4695207107777191
 23
2.306509986112478
 33
0.0
  0
LINE
  5
10C
330
107
100
AcDbEntity
  8
0
 62
     0
 48
0.3
370
    -2
100
AcDbLine
 10
-1.199821672239341
 20
0.1495411224634641
 30
0.0
 11
-1.019821672239341
 21
0.149541122463464
 31
0.0
  0
LINE
  5
10D
330
107
100
AcDbEntity
  8
0
 62
     0
 48
0.3
370
    -2
100
AcDbLine
 10
-1.109821672239341
 20
0.059541122463464
 30
0.0
 11
-1.109821672239341
 21
0.239541122463464
 31
0.0
  0
POINT
  5
10E
330
107
100
AcDbEntity
  8
Defpoints
 62
     0
 48
0.3
100
AcDbPoint
 10
-0.4695207107777191
 20
2.306509986112478
 30
0.0
  0
POINT
  5
10F
330
107
100
AcDbEntity
  8
Defpoints
 62
     0
 48
0.3
100
AcDbPoint
 10
-1.109821672239341
 20
0.149541122463464
 30
0.0
  0
ENDBLK
  5
111
330
107
100
AcDbEntity
  8
0
 48
0.3
100
AcDbBlockEnd
  0
BLOCK
  5
11B
330
112
100
AcDbEntity
  8
0
 48
0.3
100
AcDbBlockBegin
  2
*D9
 70
     1
 10
0.0
 20
0.0
 30
0.0
  3
*D9
  1

  0
LINE
  5
113
330
112
100
AcDbEntity
  8
0
 62
     0
 48
0.3
370
    -2
100
AcDbLine
 10
1.131905809625544
 20
-0.7020204812373415
 30
0.0
 11
0.9519058096255443
 21
-0.7020204812373411
 31
0.0
  0
LINE
  5
114
330
112
100
AcDbEntity
  8
0
 62
     0
 48
0.3
370
    -2
100
AcDbLine
 10
0.9519058096255443
 20
-0.7020204812373411
 30
0.0
 11
0.508523866491249
 21
-0.0797196133305514
 31
0.0
  0
MTEXT
  5
115
330
112
100
AcDbEntity
  8
0
 62
     0
 48
0.3
100
AcDbMText
 10
1.716905809625544
 20
-0.7020204812373413
 30
0.0
 40
0.18
 41
0.0
 71
     5
 72
     1
  1
\A1;\U+22050.2030
 73
     1
 44
1.0
  0
SOLID
  5
116
330
112
100
AcDbEntity
  8
0
 62
     0
 48
0.3
100
AcDbTrace
 10
0.5329566269666325
 20
-0.0623115630217851
 30
0.0
 11
0.4840911060158656
 21
-0.0971276636393178
 31
0.0
 12
0.4040755646386512
 22
0.0668769495217495
 32
0.0
 13
0.4040755646386512
 23
0.0668769495217495
 33
0.0
  0
LINE
  5
117
330
112
100
AcDbEntity
  8
0
 62
     0
 48
0.3
370
    -2
100
AcDbLine
 10
0.2551783277606585
 20
0.1495411224634635
 30
0.0
 11
0.4351783277606584
 21
0.1495411224634635
 31
0.0
  0
LINE
  5
118
330
112
100
AcDbEntity
  8
0
 62
     0
 48
0.3
370
    -2
100
AcDbLine
 10
0.3451783277606584
 20
0.0595411224634635
 30
0.0
 11
0.3451783277606584
 21
0.2395411224634635
 31
0.0
  0
POINT
  5
119
330
112
100
AcDbEntity
  8
Defpoints
 62
     0
 48
0.3
100
AcDbPoint
 10
0.4040755646386512
 20
0.0668769495217495
 30
0.0
  0
POINT
  5
11A
330
112
100
AcDbEntity
  8
Defpoints
 62
     0
 48
0.3
100
AcDbPoint
 10
0.2862810908826657
 20
0.2322052954051776
 30
0.0
  0
ENDBLK
  5
11C
330
112
100
AcDbEntity
  8
0
 48
0.3
100
AcDbBlockEnd
  0
BLOCK
  5
125
330
11D
100
AcDbEntity
  8
0
 48
0.3
100
AcDbBlockBegin
  2
*D10
 70
     1
 10
0.0
 20
0.0
 30
0.0
  3
*D10
  1

  0
LINE
  5
11E
330
11D
100
AcDbEntity
  8
0
 62
     0
 48
0.3
370
    -2
100
AcDbLine
 10
1.180507955648098
 20
-0.0318326507811278
 30
0.0
 11
1.00106972582449
 21
-0.0176227360111488
 31
0.0
  0
MTEXT
  5
11F
330
11D
100
AcDbEntity
  8
0
 62
     0
 48
0.3
100
AcDbMText
 10
1.780507955648097
 20
-0.0318326507811278
 30
0.0
 40
0.18
 41
0.0
 71
     5
 72
     1
  1
\A1;R1.9375
 73
     1
 44
1.0
  0
SOLID
  5
120
330
11D
100
AcDbEntity
  8
0
 62
     0
 48
0.3
100
AcDbTrace
 10
1.003438044952819
 20
0.0122836356261192
 30
0.0
 11
0.9987014066961602
 21
-0.0475291076484168
 31
0.0
 12
0.8216314960008823
 22
-0.0034128212411699
 32
0.0
 13
0.8216314960008823
 23
-0.0034128212411699
 33
0.0
  0
LINE
  5
121
330
11D
100
AcDbEntity
  8
0
 62
     0
 48
0.3
370
    -2
100
AcDbLine
 10
-1.199821672239339
 20
0.1495411224634642
 30
0.0
 11
-1.019821672239339
 21
0.1495411224634642
 31
0.0
  0
LINE
  5
122
330
11D
100
AcDbEntity
  8
0
 62
     0
 48
0.3
370
    -2
100
AcDbLine
 10
-1.109821672239339
 20
0.0595411224634642
 30
0.0
 11
-1.109821672239339
 21
0.2395411224634642
 31
0.0
  0
POINT
  5
123
330
11D
100
AcDbEntity
  8
Defpoints
 62
     0
 48
0.3
100
AcDbPoint
 10
0.8216314960008823
 20
-0.0034128212411699
 30
0.0
  0
POINT
  5
124
330
11D
100
AcDbEntity
  8
Defpoints
 62
     0
 48
0.3
100
AcDbPoint
 10
-1.109821672239339
 20
0.1495411224634642
 30
0.0
  0
ENDBLK
  5
126
330
11D
100
AcDbEntity
  8
0
 48
0.3
100
AcDbBlockEnd
  0
BLOCK
  5
130
330
127
100
AcDbEntity
  8
0
 48
0.3
100
AcDbBlockBegin
  2
*D11
 70
     1
 10
0.0
 20
0.0
 30
0.0
  3
*D11
  1

  0
LINE
  5
128
330
127
100
AcDbEntity
  8
0
 62
     0
 48
0.3
370
    -2
100
AcDbLine
 10
0.5960302777411814
 20
2.245483934702981
 30
0.0
 11
0.4160302777411813
 21
2.245483934702981
 31
0.0
  0
LINE
  5
129
330
127
100
AcDbEntity
  8
0
 62
     0
 48
0.3
370
    -2
100
AcDbLine
 10
0.4160302777411813
 20
2.245483934702981
 30
0.0
 11
0.2781742718350051
 21
2.129744046869977
 31
0.0
  0
MTEXT
  5
12A
330
127
100
AcDbEntity
  8
0
 62
     0
 48
0.3
100
AcDbMText
 10
1.166030277741181
 20
2.245483934702981
 30
0.0
 40
0.18
 41
0.0
 71
     5
 72
     1
  1
\A1;R0.1250
 73
     1
 44
1.0
  0
SOLID
  5
12B
330
127
100
AcDbEntity
  8
0
 62
     0
 48
0.3
100
AcDbTrace
 10
0.2588842905295045
 20
2.15272004785434
 30
0.0
 11
0.2974642531405057
 21
2.106768045885615
 31
0.0
 12
0.1403182659288289
 22
2.014004159036974
 32
0.0
 13
0.1403182659288289
 23
2.014004159036974
 33
0.0
  0
LINE
  5
12C
330
127
100
AcDbEntity
  8
0
 62
     0
 48
0.3
370
    -2
100
AcDbLine
 10
-0.0454150715060159
 20
1.933629236930721
 30
0.0
 11
0.1345849284939844
 21
1.933629236930721
 31
0.0
  0
LINE
  5
12D
330
127
100
AcDbEntity
  8
0
 62
     0
 48
0.3
370
    -2
100
AcDbLine
 10
0.0445849284939839
 20
1.843629236930721
 30
0.0
 11
0.0445849284939842
 21
2.023629236930721
 31
0.0
  0
POINT
  5
12E
330
127
100
AcDbEntity
  8
Defpoints
 62
     0
 48
0.3
100
AcDbPoint
 10
0.1403182659288289
 20
2.014004159036974
 30
0.0
  0
POINT
  5
12F
330
127
100
AcDbEntity
  8
Defpoints
 62
     0
 48
0.3
100
AcDbPoint
 10
0.0445849284939842
 20
1.933629236930721
 30
0.0
  0
ENDBLK
  5
131
330
127
100
AcDbEntity
  8
0
 48
0.3
100
AcDbBlockEnd
  0
BLOCK
  5
13A
330
132
100
AcDbEntity
  8
0
 48
0.3
100
AcDbBlockBegin
  2
*D12
 70
     1
 10
0.0
 20
0.0
 30
0.0
  3
*D12
  1

  0
LINE
  5
133
330
132
100
AcDbEntity
  8
0
 62
     0
 48
0.3
370
    -2
100
AcDbLine
 10
0.3442123391332077
 20
-1.706137901082044
 30
0.0
 11
-0.0595235661750726
 21
-1.777862124141966
 31
0.0
  0
MTEXT
  5
134
330
132
100
AcDbEntity
  8
0
 62
     0
 48
0.3
100
AcDbMText
 10
0.9292123391332077
 20
-1.706137901082045
 30
0.0
 40
0.18
 41
0.0
 71
     5
 72
     1
  1
\A1;\U+22050.2500
 73
     1
 44
1.0
  0
SOLID
  5
135
330
132
100
AcDbEntity
  8
0
 62
     0
 48
0.3
100
AcDbTrace
 10
-0.064770945828326
 20
-1.748324605512693
 30
0.0
 11
-0.0542761865218192
 21
-1.807399642771238
 31
0.0
 12
-0.2367486779507077
 22
-1.809346402061486
 32
0.0
 13
-0.2367486779507077
 23
-1.809346402061486
 33
0.0
  0
LINE
  5
136
330
132
100
AcDbEntity
  8
0
 62
     0
 48
0.3
370
    -2
100
AcDbLine
 10
-0.4498216722393435
 20
-1.831210483950042
 30
0.0
 11
-0.2698216722393434
 21
-1.831210483950042
 31
0.0
  0
LINE
  5
137
330
132
100
AcDbEntity
  8
0
 62
     0
 48
0.3
370
    -2
100
AcDbLine
 10
-0.3598216722393433
 20
-1.921210483950042
 30
0.0
 11
-0.3598216722393433
 21
-1.741210483950041
 31
0.0
  0
POINT
  5
138
330
132
100
AcDbEntity
  8
Defpoints
 62
     0
 48
0.3
100
AcDbPoint
 10
-0.2367486779507077
 20
-1.809346402061486
 30
0.0
  0
POINT
  5
139
330
132
100
AcDbEntity
  8
Defpoints
 62
     0
 48
0.3
100
AcDbPoint
 10
-0.4828946665279789
 20
-1.853074565838597
 30
0.0
  0
ENDBLK
  5
13B
330
132
100
AcDbEntity
  8
0
 48
0.3
100
AcDbBlockEnd
  0
BLOCK
  5
148
330
13C
100
AcDbEntity
  8
0
 48
0.3
100
AcDbBlockBegin
  2
*D13
 70
     1
 10
0.0
 20
0.0
 30
0.0
  3
*D13
  1

  0
LINE
  5
13D
330
13C
100
AcDbEntity
  8
0
 62
     0
 48
0.3
370
    -2
100
AcDbLine
 10
2.392020017962067
 20
0.3730598388749708
 30
0.0
 11
1.14019026437409
 21
0.3730598388749712
 31
0.0
  0
LINE
  5
13E
330
13C
100
AcDbEntity
  8
0
 62
     0
 48
0.3
370
    -2
100
AcDbLine
 10
2.392020017962067
 20
0.6330598388749707
 30
0.0
 11
1.14019026437409
 21
0.6330598388749711
 31
0.0
  0
LINE
  5
13F
330
13C
100
AcDbEntity
  8
0
 62
     0
 48
0.3
370
    -2
100
AcDbLine
 10
1.32019026437409
 20
0.1930598388749712
 30
0.0
 11
1.32019026437409
 21
0.0130598388749712
 31
0.0
  0
LINE
  5
140
330
13C
100
AcDbEntity
  8
0
 62
     0
 48
0.3
370
    -2
100
AcDbLine
 10
1.32019026437409
 20
0.8130598388749708
 30
0.0
 11
1.32019026437409
 21
0.9930598388749709
 31
0.0
  0
LINE
  5
141
330
13C
100
AcDbEntity
  8
0
 62
     0
 48
0.3
370
    -2
100
AcDbLine
 10
1.32019026437409
 20
0.9930598388749709
 30
0.0
 11
1.50019026437409
 21
0.9930598388749709
 31
0.0
  0
SOLID
  5
142
330
13C
100
AcDbEntity
  8
0
 62
     0
 48
0.3
100
AcDbTrace
 10
1.29019026437409
 20
0.1930598388749712
 30
0.0
 11
1.35019026437409
 21
0.1930598388749712
 31
0.0
 12
1.32019026437409
 22
0.3730598388749712
 32
0.0
 13
1.32019026437409
 23
0.3730598388749712
 33
0.0
  0
SOLID
  5
143
330
13C
100
AcDbEntity
  8
0
 62
     0
 48
0.3
100
AcDbTrace
 10
1.29019026437409
 20
0.8130598388749708
 30
0.0
 11
1.35019026437409
 21
0.8130598388749708
 31
0.0
 12
1.32019026437409
 22
0.633059838874971
 32
0.0
 13
1.32019026437409
 23
0.633059838874971
 33
0.0
  0
MTEXT
  5
144
330
13C
100
AcDbEntity
  8
0
 62
     0
 48
0.3
100
AcDbMText
 10
1.99519026437409
 20
0.9930598388749711
 30
0.0
 40
0.18
 41
0.0
 71
     5
 72
     1
  1
\A1;0.2600
 73
     1
 44
1.0
  0
POINT
  5
145
330
13C
100
AcDbEntity
  8
Defpoints
 62
     0
 48
0.3
100
AcDbPoint
 10
2.454520017962067
 20
0.3730598388749708
 30
0.0
  0
POINT
  5
146
330
13C
100
AcDbEntity
  8
Defpoints
 62
     0
 48
0.3
100
AcDbPoint
 10
2.454520017962067
 20
0.6330598388749707
 30
0.0
  0
POINT
  5
147
330
13C
100
AcDbEntity
  8
Defpoints
 62
     0
 48
0.3
100
AcDbPoint
 10
1.32019026437409
 20
0.633059838874971
 30
0.0
  0
ENDBLK
  5
149
330
13C
100
AcDbEntity
  8
0
 48
0.3
100
AcDbBlockEnd
  0
BLOCK
  5
157
330
14A
100
AcDbEntity
  8
0
 48
0.3
100
AcDbBlockBegin
  2
*D14
 70
     1
 10
0.0
 20
0.0
 30
0.0
  3
*D14
  1

  0
LINE
  5
14B
330
14A
100
AcDbEntity
  8
0
 62
     0
 48
0.3
370
    -2
100
AcDbLine
 10
-2.471406282955422
 20
0.6410347515074949
 30
0.0
 11
-3.271103616222544
 21
1.013939742216082
 31
0.0
  0
LINE
  5
14C
330
14A
100
AcDbEntity
  8
0
 62
     0
 48
0.3
370
    -2
100
AcDbLine
 10
-3.109821672239342
 20
0.1495411224634648
 30
0.0
 11
-3.462736176617623
 21
0.1495411224634647
 31
0.0
  0
ARC
  5
14D
330
14A
100
AcDbEntity
  8
0
 62
     0
 48
0.3
370
    -2
100
AcDbCircle
 10
-1.417394794084139
 20
0.1495411224634644
 30
0.0
 40
1.865341382533484
100
AcDbArc
 50
143.9379541898751
 51
149.4689770949376
  0
ARC
  5
14E
330
14A
100
AcDbEntity
  8
0
 62
     0
 48
0.3
370
    -2
100
AcDbCircle
 10
-1.417394794084139
 20
0.1495411224634644
 30
0.0
 40
1.865341382533484
100
AcDbArc
 50
185.5310229050624
 51
191.0620458101249
  0
SOLID
  5
14F
330
14A
100
AcDbEntity
  8
0
 62
     0
 48
0.3
100
AcDbTrace
 10
-2.997568631399494
 20
1.083167911532852
 30
0.0
 11
-3.050660324466361
 21
1.111119157073859
 31
0.0
 12
-3.107968214555947
 22
0.9378684551027566
 32
0.0
 13
-3.107968214555947
 23
0.9378684551027566
 33
0.0
  0
SOLID
  5
150
330
14A
100
AcDbEntity
  8
0
 62
     0
 48
0.3
100
AcDbTrace
 10
-3.304016500083173
 20
-0.0316966987361995
 30
0.0
 11
-3.244086378425685
 21
-0.0288017862818018
 31
0.0
 12
-3.282736176617623
 22
0.1495411224634648
 32
0.0
 13
-3.282736176617623
 23
0.1495411224634648
 33
0.0
  0
MTEXT
  5
151
330
14A
100
AcDbEntity
  8
0
 62
     0
 48
0.3
100
AcDbMText
 10
-3.238520137767156
 20
0.5532748911617778
 30
0.0
 40
0.18
 41
0.0
 71
     5
 72
     1
  1
\A1;25°
 73
     1
 44
1.0
  0
POINT
  5
152
330
14A
100
AcDbEntity
  8
Defpoints
 62
     0
 48
0.3
100
AcDbPoint
 10
-3.204372275439292
 20
0.6845270610838409
 30
0.0
  0
POINT
  5
153
330
14A
100
AcDbEntity
  8
Defpoints
 62
     0
 48
0.3
100
AcDbPoint
 10
-1.984821672239341
 20
0.1495411224634647
 30
0.0
  0
POINT
  5
154
330
14A
100
AcDbEntity
  8
Defpoints
 62
     0
 48
0.3
100
AcDbPoint
 10
-2.414762046265631
 20
0.6146211101487014
 30
0.0
  0
POINT
  5
155
330
14A
100
AcDbEntity
  8
Defpoints
 62
     0
 48
0.3
100
AcDbPoint
 10
-1.948976171678371
 20
0.3974215897682383
 30
0.0
  0
POINT
  5
156
330
14A
100
AcDbEntity
  8
Defpoints
 62
     0
 48
0.3
100
AcDbPoint
 10
-3.047321672239341
 20
0.149541122463465
 30
0.0
  0
ENDBLK
  5
158
330
14A
100
AcDbEntity
  8
0
 48
0.3
100
AcDbBlockEnd
  0
BLOCK
  5
164
330
159
100
AcDbEntity
  8
0
 48
0.3
100
AcDbBlockBegin
  2
*D15
 70
     1
 10
0.0
 20
0.0
 30
0.0
  3
*D15
  1

  0
LINE
  5
15A
330
159
100
AcDbEntity
  8
0
 62
     0
 48
0.3
370
    -2
100
AcDbLine
 10
-1.172321672239345
 20
2.199541122463469
 30
0.0
 11
-3.68801270004635
 21
2.199541122463469
 31
0.0
  0
LINE
  5
15B
330
159
100
AcDbEntity
  8
0
 62
     0
 48
0.3
370
    -2
100
AcDbLine
 10
-1.172321672239341
 20
0.149541122463464
 30
0.0
 11
-3.688012700046351
 21
0.1495411224634648
 31
0.0
  0
LINE
  5
15C
330
159
100
AcDbEntity
  8
0
 62
     0
 48
0.3
370
    -2
100
AcDbLine
 10
-3.50801270004635
 20
2.019541122463469
 30
0.0
 11
-3.50801270004635
 21
1.712893170345343
 31
0.0
  0
LINE
  5
15D
330
159
100
AcDbEntity
  8
0
 62
     0
 48
0.3
370
    -2
100
AcDbLine
 10
-3.508012700046351
 20
0.3295411224634646
 30
0.0
 11
-3.50801270004635
 21
1.352893170345343
 31
0.0
  0
SOLID
  5
15E
330
159
100
AcDbEntity
  8
0
 62
     0
 48
0.3
100
AcDbTrace
 10
-3.53801270004635
 20
2.019541122463469
 30
0.0
 11
-3.47801270004635
 21
2.019541122463469
 31
0.0
 12
-3.50801270004635
 22
2.199541122463469
 32
0.0
 13
-3.50801270004635
 23
2.199541122463469
 33
0.0
  0
SOLID
  5
15F
330
159
100
AcDbEntity
  8
0
 62
     0
 48
0.3
100
AcDbTrace
 10
-3.53801270004635
 20
0.3295411224634646
 30
0.0
 11
-3.478012700046351
 21
0.3295411224634646
 31
0.0
 12
-3.508012700046351
 22
0.1495411224634647
 32
0.0
 13
-3.508012700046351
 23
0.1495411224634647
 33
0.0
  0
MTEXT
  5
160
330
159
100
AcDbEntity
  8
0
 62
     0
 48
0.3
100
AcDbMText
 10
-3.508012700046351
 20
1.532893170345342
 30
0.0
 40
0.18
 41
0.0
 71
     5
 72
     1
  1
\A1;2.0500
 73
     1
 44
1.0
  0
POINT
  5
161
330
159
100
AcDbEntity
  8
Defpoints
 62
     0
 48
0.3
100
AcDbPoint
 10
-1.109821672239345
 20
2.199541122463469
 30
0.0
  0
POINT
  5
162
330
159
100
AcDbEntity
  8
Defpoints
 62
     0
 48
0.3
100
AcDbPoint
 10
-1.109821672239341
 20
0.149541122463464
 30
0.0
  0
POINT
  5
163
330
159
100
AcDbEntity
  8
Defpoints
 62
     0
 48
0.3
100
AcDbPoint
 10
-3.508012700046351
 20
0.1495411224634647
 30
0.0
  0
ENDBLK
  5
165
330
159
100
AcDbEntity
  8
0
 48
0.3
100
AcDbBlockEnd
  0
BLOCK
  5
171
330
166
100
AcDbEntity
  8
0
 48
0.3
100
AcDbBlockBegin
  2
*D16
 70
     1
 10
0.0
 20
0.0
 30
0.0
  3
*D16
  1

  0
LINE
  5
167
330
166
100
AcDbEntity
  8
0
 62
     0
 48
0.3
370
    -2
100
AcDbLine
 10
-1.172321672239341
 20
0.1495411224634644
 30
0.0
 11
-3.671508842200986
 21
0.1495411224634651
 31
0.0
  0
LINE
  5
168
330
166
100
AcDbEntity
  8
0
 62
     0
 48
0.3
370
    -2
100
AcDbLine
 10
-1.172321672239342
 20
-1.305458877536535
 30
0.0
 11
-3.671508842200986
 21
-1.305458877536534
 31
0.0
  0
LINE
  5
169
330
166
100
AcDbEntity
  8
0
 62
     0
 48
0.3
370
    -2
100
AcDbLine
 10
-3.491508842200985
 20
-0.0304588775365349
 30
0.0
 11
-3.491508842200985
 21
-0.397958877536535
 31
0.0
  0
LINE
  5
16A
330
166
100
AcDbEntity
  8
0
 62
     0
 48
0.3
370
    -2
100
AcDbLine
 10
-3.491508842200986
 20
-1.125458877536535
 30
0.0
 11
-3.491508842200985
 21
-0.7579588775365352
 31
0.0
  0
SOLID
  5
16B
330
166
100
AcDbEntity
  8
0
 62
     0
 48
0.3
100
AcDbTrace
 10
-3.521508842200985
 20
-0.0304588775365349
 30
0.0
 11
-3.461508842200986
 21
-0.0304588775365349
 31
0.0
 12
-3.491508842200985
 22
0.1495411224634651
 32
0.0
 13
-3.491508842200985
 23
0.1495411224634651
 33
0.0
  0
SOLID
  5
16C
330
166
100
AcDbEntity
  8
0
 62
     0
 48
0.3
100
AcDbTrace
 10
-3.521508842200986
 20
-1.125458877536534
 30
0.0
 11
-3.461508842200986
 21
-1.125458877536535
 31
0.0
 12
-3.491508842200986
 22
-1.305458877536535
 32
0.0
 13
-3.491508842200986
 23
-1.305458877536535
 33
0.0
  0
MTEXT
  5
16D
330
166
100
AcDbEntity
  8
0
 62
     0
 48
0.3
100
AcDbMText
 10
-3.491508842200985
 20
-0.5779588775365356
 30
0.0
 40
0.18
 41
0.0
 71
     5
 72
     1
  1
\A1;1.4550
 73
     1
 44
1.0
  0
POINT
  5
16E
330
166
100
AcDbEntity
  8
Defpoints
 62
     0
 48
0.3
100
AcDbPoint
 10
-1.109821672239341
 20
0.1495411224634644
 30
0.0
  0
POINT
  5
16F
330
166
100
AcDbEntity
  8
Defpoints
 62
     0
 48
0.3
100
AcDbPoint
 10
-1.109821672239342
 20
-1.305458877536535
 30
0.0
  0
POINT
  5
170
330
166
100
AcDbEntity
  8
Defpoints
 62
     0
 48
0.3
100
AcDbPoint
 10
-3.491508842200986
 20
-1.305458877536535
 30
0.0
  0
ENDBLK
  5
172
330
166
100
AcDbEntity
  8
0
 48
0.3
100
AcDbBlockEnd
  0
BLOCK
  5
17C
330
173
100
AcDbEntity
  8
0
 48
0.3
100
AcDbBlockBegin
  2
*D17
 70
     1
 10
0.0
 20
0.0
 30
0.0
  3
*D17
  1

  0
LINE
  5
174
330
173
100
AcDbEntity
  8
0
 62
     0
 48
0.3
370
    -2
100
AcDbLine
 10
0.9714523405636377
 20
1.311103968667677
 30
0.0
 11
0.7914523405636376
 21
1.311103968667676
 31
0.0
  0
LINE
  5
175
330
173
100
AcDbEntity
  8
0
 62
     0
 48
0.3
370
    -2
100
AcDbLine
 10
0.7914523405636376
 20
1.311103968667676
 30
0.0
 11
0.4714204419791458
 21
0.4781243365777063
 31
0.0
  0
MTEXT
  5
176
330
173
100
AcDbEntity
  8
0
 62
     0
 48
0.3
100
AcDbMText
 10
1.571452340563637
 20
1.311103968667677
 30
0.0
 40
0.18
 41
0.0
 71
     5
 72
     1
  1
\A1;\U+22050.3440
 73
     1
 44
1.0
  0
SOLID
  5
177
330
173
100
AcDbEntity
  8
0
 62
     0
 48
0.3
100
AcDbTrace
 10
0.4434161907762273
 20
0.4888836076758728
 30
0.0
 11
0.4994246931820642
 21
0.4673650654795397
 31
0.0
 12
0.4068648153901464
 22
0.3100988293601956
 32
0.0
 13
0.4068648153901464
 23
0.3100988293601956
 33
0.0
  0
LINE
  5
178
330
173
100
AcDbEntity
  8
0
 62
     0
 48
0.3
370
    -2
100
AcDbLine
 10
0.2551783277606583
 20
0.1495411224634634
 30
0.0
 11
0.4351783277606583
 21
0.1495411224634635
 31
0.0
  0
LINE
  5
179
330
173
100
AcDbEntity
  8
0
 62
     0
 48
0.3
370
    -2
100
AcDbLine
 10
0.3451783277606583
 20
0.0595411224634634
 30
0.0
 11
0.3451783277606583
 21
0.2395411224634634
 31
0.0
  0
POINT
  5
17A
330
173
100
AcDbEntity
  8
Defpoints
 62
     0
 48
0.3
100
AcDbPoint
 10
0.4068648153901464
 20
0.3100988293601956
 30
0.0
  0
POINT
  5
17B
330
173
100
AcDbEntity
  8
Defpoints
 62
     0
 48
0.3
100
AcDbPoint
 10
0.2834918401311702
 20
-0.0110165844332688
 30
0.0
  0
ENDBLK
  5
17D
330
173
100
AcDbEntity
  8
0
 48
0.3
100
AcDbBlockEnd
  0
BLOCK
  5
189
330
17E
100
AcDbEntity
  8
0
 48
0.3
100
AcDbBlockBegin
  2
*D18
 70
     1
 10
0.0
 20
0.0
 30
0.0
  3
*D18
  1

  0
LINE
  5
17F
330
17E
100
AcDbEntity
  8
0
 62
     0
 48
0.3
370
    -2
100
AcDbLine
 10
2.454520017962067
 20
-1.414958877536535
 30
0.0
 11
2.454520017962067
 21
-0.7896214258409876
 31
0.0
  0
LINE
  5
180
330
17E
100
AcDbEntity
  8
0
 62
     0
 48
0.3
370
    -2
100
AcDbLine
 10
2.642020017962067
 20
-1.414958877536535
 30
0.0
 11
2.642020017962067
 21
-0.7896214258409876
 31
0.0
  0
LINE
  5
181
330
17E
100
AcDbEntity
  8
0
 62
     0
 48
0.3
370
    -2
100
AcDbLine
 10
2.274520017962067
 20
-0.9696214258409874
 30
0.0
 11
2.094520017962067
 21
-0.9696214258409874
 31
0.0
  0
LINE
  5
182
330
17E
100
AcDbEntity
  8
0
 62
     0
 48
0.3
370
    -2
100
AcDbLine
 10
2.822020017962067
 20
-0.9696214258409874
 30
0.0
 11
3.002020017962067
 21
-0.9696214258409874
 31
0.0
  0
SOLID
  5
183
330
17E
100
AcDbEntity
  8
0
 62
     0
 48
0.3
100
AcDbTrace
 10
2.274520017962067
 20
-0.9396214258409873
 30
0.0
 11
2.274520017962067
 21
-0.9996214258409874
 31
0.0
 12
2.454520017962067
 22
-0.9696214258409874
 32
0.0
 13
2.454520017962067
 23
-0.9696214258409874
 33
0.0
  0
SOLID
  5
184
330
17E
100
AcDbEntity
  8
0
 62
     0
 48
0.3
100
AcDbTrace
 10
2.822020017962067
 20
-0.9396214258409873
 30
0.0
 11
2.822020017962067
 21
-0.9996214258409874
 31
0.0
 12
2.642020017962067
 22
-0.9696214258409874
 32
0.0
 13
2.642020017962067
 23
-0.9696214258409874
 33
0.0
  0
MTEXT
  5
185
330
17E
100
AcDbEntity
  8
0
 62
     0
 48
0.3
100
AcDbMText
 10
3.497020017962067
 20
-0.9696214258409874
 30
0.0
 40
0.18
 41
0.0
 71
     5
 72
     1
  1
\A1;0.1875
 73
     1
 44
1.0
  0
POINT
  5
186
330
17E
100
AcDbEntity
  8
Defpoints
 62
     0
 48
0.3
100
AcDbPoint
 10
2.454520017962067
 20
-1.477458877536535
 30
0.0
  0
POINT
  5
187
330
17E
100
AcDbEntity
  8
Defpoints
 62
     0
 48
0.3
100
AcDbPoint
 10
2.642020017962067
 20
-1.477458877536535
 30
0.0
  0
POINT
  5
188
330
17E
100
AcDbEntity
  8
Defpoints
 62
     0
 48
0.3
100
AcDbPoint
 10
2.642020017962067
 20
-0.9696214258409874
 30
0.0
  0
ENDBLK
  5
18A
330
17E
100
AcDbEntity
  8
0
 48
0.3
100
AcDbBlockEnd
  0
BLOCK
  5
28E
330
283
100
AcDbEntity
  8
0
 48
0.3
100
AcDbBlockBegin
  2
*D20
 70
     1
 10
0.0
 20
0.0
 30
0.0
  3
*D20
  1

  0
LINE
  5
2F9
330
283
100
AcDbEntity
  8
0
 62
     0
 48
0.3
370
    -2
100
AcDbLine
 10
2.42566923684868
 20
5.234936938772407
 30
0.0
 11
-0.0900217909583249
 21
5.234936938772408
 31
0.0
  0
LINE
  5
2FA
330
283
100
AcDbEntity
  8
0
 62
     0
 48
0.3
370
    -2
100
AcDbLine
 10
2.425669236848683
 20
3.184936938772402
 30
0.0
 11
-0.0900217909583254
 21
3.184936938772402
 31
0.0
  0
LINE
  5
2FB
330
283
100
AcDbEntity
  8
0
 62
     0
 48
0.3
370
    -2
100
AcDbLine
 10
0.0899782090416754
 20
5.109936938772408
 30
0.0
 11
0.0899782090416753
 21
4.72078898665428
 31
0.0
  0
LINE
  5
2FC
330
283
100
AcDbEntity
  8
0
 62
     0
 48
0.3
370
    -2
100
AcDbLine
 10
0.089978209041675
 20
3.309936938772402
 30
0.0
 11
0.0899782090416753
 21
4.41578898665428
 31
0.0
  0
SOLID
  5
2FD
330
283
100
AcDbEntity
  8
0
 62
     0
 48
0.3
100
AcDbTrace
 10
0.0691448757083421
 20
5.109936938772408
 30
0.0
 11
0.1108115423750087
 21
5.109936938772408
 31
0.0
 12
0.0899782090416754
 22
5.234936938772408
 32
0.0
 13
0.0899782090416754
 23
5.234936938772408
 33
0.0
  0
SOLID
  5
2FE
330
283
100
AcDbEntity
  8
0
 62
     0
 48
0.3
100
AcDbTrace
 10
0.0691448757083417
 20
3.309936938772402
 30
0.0
 11
0.1108115423750083
 21
3.309936938772402
 31
0.0
 12
0.089978209041675
 22
3.184936938772402
 32
0.0
 13
0.089978209041675
 23
3.184936938772402
 33
0.0
  0
MTEXT
  5
2FF
330
283
100
AcDbEntity
  8
0
 62
     0
 48
0.3
100
AcDbMText
 10
0.0899782090416745
 20
4.56828898665428
 30
0.0
 40
0.125
 41
0.0
 71
     5
 72
     1
  1
\A1;2.050
 73
     1
 44
1.0
  0
POINT
  5
300
330
283
100
AcDbEntity
  8
Defpoints
 62
     0
 48
0.3
100
AcDbPoint
 10
2.48816923684868
 20
5.234936938772407
 30
0.0
  0
POINT
  5
301
330
283
100
AcDbEntity
  8
Defpoints
 62
     0
 48
0.3
100
AcDbPoint
 10
2.488169236848683
 20
3.184936938772402
 30
0.0
  0
POINT
  5
302
330
283
100
AcDbEntity
  8
Defpoints
 62
     0
 48
0.3
100
AcDbPoint
 10
0.089978209041675
 20
3.184936938772402
 30
0.0
  0
ENDBLK
  5
28F
330
283
100
AcDbEntity
  8
0
 48
0.3
100
AcDbBlockEnd
  0
BLOCK
  5
298
330
290
100
AcDbEntity
  8
0
 48
0.3
100
AcDbBlockBegin
  2
*D21
 70
     1
 10
0.0
 20
0.0
 30
0.0
  3
*D21
  1

  0
LINE
  5
39D
330
290
100
AcDbEntity
  8
0
 62
     0
 48
0.3
370
    -2
100
AcDbLine
 10
3.942203248221232
 20
1.329257915226891
 30
0.0
 11
3.484315225425953
 21
1.247913496136007
 31
0.0
  0
MTEXT
  5
39E
330
290
100
AcDbEntity
  8
0
 62
     0
 48
0.3
100
AcDbMText
 10
4.323869914887899
 20
1.329257915226891
 30
0.0
 40
0.125
 41
0.0
 71
     5
 72
     1
  1
\A1;\U+22050.250
 73
     1
 44
1.0
  0
SOLID
  5
39F
330
290
100
AcDbEntity
  8
0
 62
     0
 48
0.3
100
AcDbTrace
 10
3.480671211777861
 20
1.268425661850779
 30
0.0
 11
3.487959239074045
 21
1.227401330421234
 31
0.0
 12
3.361242231137317
 22
1.226049414247451
 32
0.0
 13
3.361242231137317
 23
1.226049414247451
 33
0.0
  0
LINE
  5
3A0
330
290
100
AcDbEntity
  8
0
 62
     0
 48
0.3
370
    -2
100
AcDbLine
 10
3.148169236848681
 20
1.204185332358895
 30
0.0
 11
3.328169236848681
 21
1.204185332358895
 31
0.0
  0
LINE
  5
3A1
330
290
100
AcDbEntity
  8
0
 62
     0
 48
0.3
370
    -2
100
AcDbLine
 10
3.238169236848681
 20
1.114185332358895
 30
0.0
 11
3.238169236848681
 21
1.294185332358896
 31
0.0
  0
POINT
  5
3A2
330
290
100
AcDbEntity
  8
Defpoints
 62
     0
 48
0.3
100
AcDbPoint
 10
3.361242231137317
 20
1.226049414247451
 30
0.0
  0
POINT
  5
3A3
330
290
100
AcDbEntity
  8
Defpoints
 62
     0
 48
0.3
100
AcDbPoint
 10
3.115096242560046
 20
1.182321250470339
 30
0.0
  0
ENDBLK
  5
299
330
290
100
AcDbEntity
  8
0
 48
0.3
100
AcDbBlockEnd
  0
BLOCK
  5
2A3
330
29A
100
AcDbEntity
  8
0
 48
0.3
100
AcDbBlockBegin
  2
*D22
 70
     1
 10
0.0
 20
0.0
 30
0.0
  3
*D22
  1

  0
LINE
  5
395
330
29A
100
AcDbEntity
  8
0
 62
     0
 48
0.3
370
    -2
100
AcDbLine
 10
4.054775849886542
 20
5.210149819558417
 30
0.0
 11
3.929775849886543
 21
5.210149819558417
 31
0.0
  0
LINE
  5
396
330
29A
100
AcDbEntity
  8
0
 62
     0
 48
0.3
370
    -2
100
AcDbLine
 10
3.929775849886543
 20
5.210149819558417
 30
0.0
 11
3.834042512451698
 21
5.129774897452165
 31
0.0
  0
MTEXT
  5
397
330
29A
100
AcDbEntity
  8
0
 62
     0
 48
0.3
100
AcDbMText
 10
4.426025849886543
 20
5.210149819558417
 30
0.0
 40
0.125
 41
0.0
 71
     5
 72
     1
  1
\A1;R0.125
 73
     1
 44
1.0
  0
SOLID
  5
398
330
29A
100
AcDbEntity
  8
0
 62
     0
 48
0.3
100
AcDbTrace
 10
3.820646692100656
 20
5.145730453691305
 30
0.0
 11
3.84743833280274
 21
5.113819341213024
 31
0.0
 12
3.738309175016854
 22
5.049399975345911
 32
0.0
 13
3.738309175016854
 23
5.049399975345911
 33
0.0
  0
LINE
  5
399
330
29A
100
AcDbEntity
  8
0
 62
     0
 48
0.3
370
    -2
100
AcDbLine
 10
3.55257583758201
 20
4.969025053239658
 30
0.0
 11
3.73257583758201
 21
4.969025053239659
 31
0.0
  0
LINE
  5
39A
330
29A
100
AcDbEntity
  8
0
 62
     0
 48
0.3
370
    -2
100
AcDbLine
 10
3.64257583758201
 20
4.879025053239659
 30
0.0
 11
3.64257583758201
 21
5.059025053239659
 31
0.0
  0
POINT
  5
39B
330
29A
100
AcDbEntity
  8
Defpoints
 62
     0
 48
0.3
100
AcDbPoint
 10
3.738309175016854
 20
5.049399975345911
 30
0.0
  0
POINT
  5
39C
330
29A
100
AcDbEntity
  8
Defpoints
 62
     0
 48
0.3
100
AcDbPoint
 10
3.64257583758201
 20
4.969025053239659
 30
0.0
  0
ENDBLK
  5
2A4
330
29A
100
AcDbEntity
  8
0
 48
0.3
100
AcDbBlockEnd
  0
BLOCK
  5
2AD
330
2A5
100
AcDbEntity
  8
0
 48
0.3
100
AcDbBlockBegin
  2
*D23
 70
     1
 10
0.0
 20
0.0
 30
0.0
  3
*D23
  1

  0
LINE
  5
38E
330
2A5
100
AcDbEntity
  8
0
 62
     0
 48
0.3
370
    -2
100
AcDbLine
 10
4.668842168732805
 20
3.012247002331687
 30
0.0
 11
4.544232286910856
 21
3.022114998699727
 31
0.0
  0
MTEXT
  5
38F
330
2A5
100
AcDbEntity
  8
0
 62
     0
 48
0.3
100
AcDbMText
 10
5.050508835399472
 20
3.012247002331687
 30
0.0
 40
0.125
 41
0.0
 71
     5
 72
     1
  1
\A1;R1.937
 73
     1
 44
1.0
  0
SOLID
  5
390
330
2A5
100
AcDbEntity
  8
0
 62
     0
 48
0.3
100
AcDbTrace
 10
4.545876952972196
 20
3.042883312336719
 30
0.0
 11
4.542587620849515
 21
3.001346685062736
 31
0.0
 12
4.419622405088905
 22
3.031982995067768
 32
0.0
 13
4.419622405088905
 23
3.031982995067768
 33
0.0
  0
LINE
  5
391
330
2A5
100
AcDbEntity
  8
0
 62
     0
 48
0.3
370
    -2
100
AcDbLine
 10
2.398169236848683
 20
3.184936938772403
 30
0.0
 11
2.578169236848683
 21
3.184936938772402
 31
0.0
  0
LINE
  5
392
330
2A5
100
AcDbEntity
  8
0
 62
     0
 48
0.3
370
    -2
100
AcDbLine
 10
2.488169236848683
 20
3.094936938772402
 30
0.0
 11
2.488169236848683
 21
3.274936938772403
 31
0.0
  0
POINT
  5
393
330
2A5
100
AcDbEntity
  8
Defpoints
 62
     0
 48
0.3
100
AcDbPoint
 10
4.419622405088905
 20
3.031982995067768
 30
0.0
  0
POINT
  5
394
330
2A5
100
AcDbEntity
  8
Defpoints
 62
     0
 48
0.3
100
AcDbPoint
 10
2.488169236848683
 20
3.184936938772402
 30
0.0
  0
ENDBLK
  5
2AE
330
2A5
100
AcDbEntity
  8
0
 48
0.3
100
AcDbBlockEnd
  0
BLOCK
  5
2B8
330
2AF
100
AcDbEntity
  8
0
 48
0.3
100
AcDbBlockBegin
  2
*D24
 70
     1
 10
0.0
 20
0.0
 30
0.0
  3
*D24
  1

  0
LINE
  5
386
330
2AF
100
AcDbEntity
  8
0
 62
     0
 48
0.3
370
    -2
100
AcDbLine
 10
3.324614749583819
 20
5.581569009493527
 30
0.0
 11
3.199614749583819
 21
5.581569009493528
 31
0.0
  0
LINE
  5
387
330
2AF
100
AcDbEntity
  8
0
 62
     0
 48
0.3
370
    -2
100
AcDbLine
 10
3.199614749583819
 20
5.581569009493528
 30
0.0
 11
3.164042473947063
 21
5.461737405957472
 31
0.0
  0
MTEXT
  5
388
330
2AF
100
AcDbEntity
  8
0
 62
     0
 48
0.3
100
AcDbMText
 10
3.716698082917152
 20
5.581569009493528
 30
0.0
 40
0.125
 41
0.0
 71
     5
 72
     1
  1
\A1;R2.250
 73
     1
 44
1.0
  0
SOLID
  5
389
330
2AF
100
AcDbEntity
  8
0
 62
     0
 48
0.3
100
AcDbTrace
 10
3.144070540024387
 20
5.467666118563598
 30
0.0
 11
3.184014407869739
 21
5.455808693351346
 31
0.0
 12
3.128470198310306
 22
5.341905802421416
 32
0.0
 13
3.128470198310306
 23
5.341905802421416
 33
0.0
  0
LINE
  5
38A
330
2AF
100
AcDbEntity
  8
0
 62
     0
 48
0.3
370
    -2
100
AcDbLine
 10
2.398169236848683
 20
3.184936938772401
 30
0.0
 11
2.578169236848682
 21
3.184936938772401
 31
0.0
  0
LINE
  5
38B
330
2AF
100
AcDbEntity
  8
0
 62
     0
 48
0.3
370
    -2
100
AcDbLine
 10
2.488169236848683
 20
3.094936938772402
 30
0.0
 11
2.488169236848682
 21
3.274936938772401
 31
0.0
  0
POINT
  5
38C
330
2AF
100
AcDbEntity
  8
Defpoints
 62
     0
 48
0.3
100
AcDbPoint
 10
3.128470198310306
 20
5.341905802421416
 30
0.0
  0
POINT
  5
38D
330
2AF
100
AcDbEntity
  8
Defpoints
 62
     0
 48
0.3
100
AcDbPoint
 10
2.488169236848682
 20
3.184936938772402
 30
0.0
  0
ENDBLK
  5
2B9
330
2AF
100
AcDbEntity
  8
0
 48
0.3
100
AcDbBlockEnd
  0
BLOCK
  5
2C3
330
2BA
100
AcDbEntity
  8
0
 48
0.3
100
AcDbBlockBegin
  2
*D25
 70
     1
 10
0.0
 20
0.0
 30
0.0
  3
*D25
  1

  0
LINE
  5
37E
330
2BA
100
AcDbEntity
  8
0
 62
     0
 48
0.3
370
    -2
100
AcDbLine
 10
4.18621028602241
 20
1.766001641597057
 30
0.0
 11
3.807460286022412
 21
1.766001641597057
 31
0.0
  0
LINE
  5
37F
330
2BA
100
AcDbEntity
  8
0
 62
     0
 48
0.3
370
    -2
100
AcDbLine
 10
3.807460286022412
 20
1.766001641597057
 30
0.0
 11
3.169093649325446
 21
2.452583237004483
 31
0.0
  0
MTEXT
  5
380
330
2BA
100
AcDbEntity
  8
0
 62
     0
 48
0.3
100
AcDbMText
 10
4.55746028602241
 20
1.766001641597057
 30
0.0
 40
0.125
 41
0.0
 71
     5
 72
     1
  1
\A1;\U+22051.750
 73
     1
 44
1.0
  0
SOLID
  5
381
330
2BA
100
AcDbEntity
  8
0
 62
     0
 48
0.3
100
AcDbTrace
 10
3.184351018112278
 20
2.466769162264415
 30
0.0
 11
3.153836280538615
 21
2.43839731174455
 31
0.0
 12
3.083978097765851
 22
2.544127449725473
 32
0.0
 13
3.083978097765851
 23
2.544127449725473
 33
0.0
  0
LINE
  5
382
330
2BA
100
AcDbEntity
  8
0
 62
     0
 48
0.3
370
    -2
100
AcDbLine
 10
2.398169236848683
 20
3.184936938772402
 30
0.0
 11
2.578169236848683
 21
3.184936938772403
 31
0.0
  0
LINE
  5
383
330
2BA
100
AcDbEntity
  8
0
 62
     0
 48
0.3
370
    -2
100
AcDbLine
 10
2.488169236848683
 20
3.094936938772402
 30
0.0
 11
2.488169236848683
 21
3.274936938772402
 31
0.0
  0
POINT
  5
384
330
2BA
100
AcDbEntity
  8
Defpoints
 62
     0
 48
0.3
100
AcDbPoint
 10
3.083978097765851
 20
2.544127449725473
 30
0.0
  0
POINT
  5
385
330
2BA
100
AcDbEntity
  8
Defpoints
 62
     0
 48
0.3
100
AcDbPoint
 10
1.892360375931515
 20
3.825746427819332
 30
0.0
  0
ENDBLK
  5
2C4
330
2BA
100
AcDbEntity
  8
0
 48
0.3
100
AcDbBlockEnd
  0
BLOCK
  5
2D0
330
2C5
100
AcDbEntity
  8
0
 48
0.3
100
AcDbBlockBegin
  2
*D26
 70
     1
 10
0.0
 20
0.0
 30
0.0
  3
*D26
  1

  0
LINE
  5
2C6
330
2C5
100
AcDbEntity
  8
0
 62
     0
 48
0.3
370
    -2
100
AcDbLine
 10
2.425669236848683
 20
3.184936938772402
 30
0.0
 11
-0.0735179331129607
 21
3.184936938772402
 31
0.0
  0
LINE
  5
2C7
330
2C5
100
AcDbEntity
  8
0
 62
     0
 48
0.3
370
    -2
100
AcDbLine
 10
2.425669236848682
 20
1.729936938772402
 30
0.0
 11
-0.073517933112961
 21
1.729936938772403
 31
0.0
  0
LINE
  5
2C8
330
2C5
100
AcDbEntity
  8
0
 62
     0
 48
0.3
370
    -2
100
AcDbLine
 10
0.1064820668870395
 20
3.059936938772402
 30
0.0
 11
0.1064820668870394
 21
2.609936938772402
 31
0.0
  0
LINE
  5
2C9
330
2C5
100
AcDbEntity
  8
0
 62
     0
 48
0.3
370
    -2
100
AcDbLine
 10
0.1064820668870392
 20
1.854936938772403
 30
0.0
 11
0.1064820668870393
 21
2.304936938772403
 31
0.0
  0
SOLID
  5
2CA
330
2C5
100
AcDbEntity
  8
0
 62
     0
 48
0.3
100
AcDbTrace
 10
0.0856487335537062
 20
3.059936938772402
 30
0.0
 11
0.1273154002203728
 21
3.059936938772402
 31
0.0
 12
0.1064820668870395
 22
3.184936938772402
 32
0.0
 13
0.1064820668870395
 23
3.184936938772402
 33
0.0
  0
SOLID
  5
2CB
330
2C5
100
AcDbEntity
  8
0
 62
     0
 48
0.3
100
AcDbTrace
 10
0.0856487335537059
 20
1.854936938772403
 30
0.0
 11
0.1273154002203726
 21
1.854936938772403
 31
0.0
 12
0.1064820668870392
 22
1.729936938772403
 32
0.0
 13
0.1064820668870392
 23
1.729936938772403
 33
0.0
  0
MTEXT
  5
2CC
330
2C5
100
AcDbEntity
  8
0
 62
     0
 48
0.3
100
AcDbMText
 10
0.106482066887039
 20
2.457436938772402
 30
0.0
 40
0.125
 41
0.0
 71
     5
 72
     1
  1
\A1;1.455
 73
     1
 44
1.0
  0
POINT
  5
2CD
330
2C5
100
AcDbEntity
  8
Defpoints
 62
     0
 48
0.3
100
AcDbPoint
 10
2.488169236848683
 20
3.184936938772402
 30
0.0
  0
POINT
  5
2CE
330
2C5
100
AcDbEntity
  8
Defpoints
 62
     0
 48
0.3
100
AcDbPoint
 10
2.488169236848682
 20
1.729936938772402
 30
0.0
  0
POINT
  5
2CF
330
2C5
100
AcDbEntity
  8
Defpoints
 62
     0
 48
0.3
100
AcDbPoint
 10
0.1064820668870392
 20
1.729936938772403
 30
0.0
  0
ENDBLK
  5
2D1
330
2C5
100
AcDbEntity
  8
0
 48
0.3
100
AcDbBlockEnd
  0
BLOCK
  5
2DF
330
2D2
100
AcDbEntity
  8
0
 48
0.3
100
AcDbBlockBegin
  2
*D27
 70
     1
 10
0.0
 20
0.0
 30
0.0
  3
*D27
  1

  0
LINE
  5
2D3
330
2D2
100
AcDbEntity
  8
0
 62
     0
 48
0.3
370
    -2
100
AcDbLine
 10
1.126584626132602
 20
3.676430567816432
 30
0.0
 11
0.326887292865481
 21
4.049335558525021
 31
0.0
  0
LINE
  5
2D4
330
2D2
100
AcDbEntity
  8
0
 62
     0
 48
0.3
370
    -2
100
AcDbLine
 10
0.4881692368486838
 20
3.184936938772402
 30
0.0
 11
0.1352547324704019
 21
3.184936938772401
 31
0.0
  0
ARC
  5
2D5
330
2D2
100
AcDbEntity
  8
0
 62
     0
 48
0.3
370
    -2
100
AcDbCircle
 10
2.180596115003887
 20
3.184936938772401
 30
0.0
 40
1.865341382533485
100
AcDbArc
 50
147.3195686909613
 51
151.1597843454807
  0
ARC
  5
2D6
330
2D2
100
AcDbEntity
  8
0
 62
     0
 48
0.3
370
    -2
100
AcDbCircle
 10
2.180596115003887
 20
3.184936938772401
 30
0.0
 40
1.865341382533485
100
AcDbArc
 50
183.8402156545193
 51
187.6804313090387
  0
SOLID
  5
2D7
330
2D2
100
AcDbEntity
  8
0
 62
     0
 48
0.3
100
AcDbTrace
 10
0.5651919576284782
 20
4.075286865298155
 30
0.0
 11
0.5280403453898205
 21
4.09415135095718
 31
0.0
 12
0.4900226945320779
 22
3.973264271411693
 32
0.0
 13
0.4900226945320779
 23
3.973264271411693
 33
0.0
  0
SOLID
  5
2D8
330
2D2
100
AcDbEntity
  8
0
 62
     0
 48
0.3
100
AcDbTrace
 10
0.2986213380631916
 20
3.059309083707244
 30
0.0
 11
0.3402646096739023
 21
3.060705164173293
 31
0.0
 12
0.3152547324704018
 22
3.184936938772401
 32
0.0
 13
0.3152547324704018
 23
3.184936938772401
 33
0.0
  0
MTEXT
  5
2D9
330
2D2
100
AcDbEntity
  8
0
 62
     0
 48
0.3
100
AcDbMText
 10
0.3594707713208689
 20
3.588670707470715
 30
0.0
 40
0.125
 41
0.0
 71
     5
 72
     1
  1
\A1;25°
 73
     1
 44
1.0
  0
POINT
  5
2DA
330
2D2
100
AcDbEntity
  8
Defpoints
 62
     0
 48
0.3
100
AcDbPoint
 10
0.3936186336487334
 20
3.719922877392778
 30
0.0
  0
POINT
  5
2DB
330
2D2
100
AcDbEntity
  8
Defpoints
 62
     0
 48
0.3
100
AcDbPoint
 10
1.613169236848683
 20
3.184936938772402
 30
0.0
  0
POINT
  5
2DC
330
2D2
100
AcDbEntity
  8
Defpoints
 62
     0
 48
0.3
100
AcDbPoint
 10
1.183228862822393
 20
3.650016926457638
 30
0.0
  0
POINT
  5
2DD
330
2D2
100
AcDbEntity
  8
Defpoints
 62
     0
 48
0.3
100
AcDbPoint
 10
1.649014737409654
 20
3.432817406077176
 30
0.0
  0
POINT
  5
2DE
330
2D2
100
AcDbEntity
  8
Defpoints
 62
     0
 48
0.3
100
AcDbPoint
 10
0.5506692368486839
 20
3.184936938772402
 30
0.0
  0
ENDBLK
  5
2E0
330
2D2
100
AcDbEntity
  8
0
 48
0.3
100
AcDbBlockEnd
  0
BLOCK
  5
2EA
330
2E1
100
AcDbEntity
  8
0
 48
0.3
100
AcDbBlockBegin
  2
*D28
 70
     1
 10
0.0
 20
0.0
 30
0.0
  3
*D28
  1

  0
LINE
  5
36E
330
2E1
100
AcDbEntity
  8
0
 62
     0
 48
0.3
370
    -2
100
AcDbLine
 10
1.105073420480631
 20
0.8623296025441398
 30
0.0
 11
1.230073420480631
 21
0.8623296025441399
 31
0.0
  0
LINE
  5
36F
330
2E1
100
AcDbEntity
  8
0
 62
     0
 48
0.3
370
    -2
100
AcDbLine
 10
1.230073420480631
 20
0.8623296025441399
 30
0.0
 11
1.264636492358874
 21
0.982456177715246
 31
0.0
  0
MTEXT
  5
370
330
2E1
100
AcDbEntity
  8
0
 62
     0
 48
0.3
100
AcDbMText
 10
0.7234067538139652
 20
0.8623296025441398
 30
0.0
 40
0.125
 41
0.0
 71
     5
 72
     1
  1
\A1;R4.300
 73
     1
 44
1.0
  0
SOLID
  5
371
330
2E1
100
AcDbEntity
  8
0
 62
     0
 48
0.3
100
AcDbTrace
 10
1.244615396497024
 20
0.9882166896949531
 30
0.0
 11
1.284657588220726
 21
0.9766956657355388
 31
0.0
 12
1.299199564237118
 22
1.102582752886352
 32
0.0
 13
1.299199564237118
 23
1.102582752886352
 33
0.0
  0
LINE
  5
372
330
2E1
100
AcDbEntity
  8
0
 62
     0
 48
0.3
370
    -2
100
AcDbLine
 10
2.398169236848686
 20
5.234936938772404
 30
0.0
 11
2.578169236848685
 21
5.234936938772403
 31
0.0
  0
LINE
  5
373
330
2E1
100
AcDbEntity
  8
0
 62
     0
 48
0.3
370
    -2
100
AcDbLine
 10
2.488169236848685
 20
5.144936938772403
 30
0.0
 11
2.488169236848685
 21
5.324936938772403
 31
0.0
  0
POINT
  5
374
330
2E1
100
AcDbEntity
  8
Defpoints
 62
     0
 48
0.3
100
AcDbPoint
 10
1.299199564237118
 20
1.102582752886352
 30
0.0
  0
POINT
  5
375
330
2E1
100
AcDbEntity
  8
Defpoints
 62
     0
 48
0.3
100
AcDbPoint
 10
2.488169236848685
 20
5.234936938772403
 30
0.0
  0
ENDBLK
  5
2EB
330
2E1
100
AcDbEntity
  8
0
 48
0.3
100
AcDbBlockEnd
  0
BLOCK
  5
2F7
330
2EC
100
AcDbEntity
  8
0
 48
0.3
100
AcDbBlockBegin
  2
*D29
 70
     1
 10
0.0
 20
0.0
 30
0.0
  3
*D29
  1

  0
LINE
  5
2ED
330
2EC
100
AcDbEntity
  8
0
 62
     0
 48
0.3
370
    -2
100
AcDbLine
 10
1.738169236848682
 20
1.141685332358896
 30
0.0
 11
1.738169236848682
 21
0.3820546444854462
 31
0.0
  0
LINE
  5
2EE
330
2EC
100
AcDbEntity
  8
0
 62
     0
 48
0.3
370
    -2
100
AcDbLine
 10
3.238169236848682
 20
1.141685332358895
 30
0.0
 11
3.238169236848682
 21
0.3820546444854462
 31
0.0
  0
LINE
  5
2EF
330
2EC
100
AcDbEntity
  8
0
 62
     0
 48
0.3
370
    -2
100
AcDbLine
 10
1.863169236848682
 20
0.5620546444854462
 30
0.0
 11
2.189835903515349
 21
0.5620546444854462
 31
0.0
  0
LINE
  5
2F0
330
2EC
100
AcDbEntity
  8
0
 62
     0
 48
0.3
370
    -2
100
AcDbLine
 10
3.113169236848682
 20
0.5620546444854462
 30
0.0
 11
2.786502570182015
 21
0.5620546444854462
 31
0.0
  0
SOLID
  5
2F1
330
2EC
100
AcDbEntity
  8
0
 62
     0
 48
0.3
100
AcDbTrace
 10
1.863169236848682
 20
0.5828879778187796
 30
0.0
 11
1.863169236848682
 21
0.5412213111521128
 31
0.0
 12
1.738169236848682
 22
0.5620546444854462
 32
0.0
 13
1.738169236848682
 23
0.5620546444854462
 33
0.0
  0
SOLID
  5
2F2
330
2EC
100
AcDbEntity
  8
0
 62
     0
 48
0.3
100
AcDbTrace
 10
3.113169236848682
 20
0.5828879778187796
 30
0.0
 11
3.113169236848682
 21
0.5412213111521128
 31
0.0
 12
3.238169236848682
 22
0.5620546444854462
 32
0.0
 13
3.238169236848682
 23
0.5620546444854462
 33
0.0
  0
MTEXT
  5
2F3
330
2EC
100
AcDbEntity
  8
0
 62
     0
 48
0.3
100
AcDbMText
 10
2.488169236848682
 20
0.5620546444854462
 30
0.0
 40
0.125
 41
0.0
 71
     5
 72
     1
  1
\A1;1.500
 73
     1
 44
1.0
  0
POINT
  5
2F4
330
2EC
100
AcDbEntity
  8
Defpoints
 62
     0
 48
0.3
100
AcDbPoint
 10
1.738169236848682
 20
1.204185332358896
 30
0.0
  0
POINT
  5
2F5
330
2EC
100
AcDbEntity
  8
Defpoints
 62
     0
 48
0.3
100
AcDbPoint
 10
3.238169236848682
 20
1.204185332358895
 30
0.0
  0
POINT
  5
2F6
330
2EC
100
AcDbEntity
  8
Defpoints
 62
     0
 48
0.3
100
AcDbPoint
 10
3.238169236848682
 20
0.5620546444854462
 30
0.0
  0
ENDBLK
  5
2F8
330
2EC
100
AcDbEntity
  8
0
 48
0.3
100
AcDbBlockEnd
  0
BLOCK
  5
30C
330
303
100
AcDbEntity
  8
0
 48
0.3
100
AcDbBlockBegin
  2
*D30
 70
     1
 10
0.0
 20
0.0
 30
0.0
  3
*D30
  1

  0
LINE
  5
366
330
303
100
AcDbEntity
  8
0
 62
     0
 48
0.3
370
    -2
100
AcDbLine
 10
1.452646852916535
 20
5.719723668392608
 30
0.0
 11
1.83598018624987
 21
5.719723668392608
 31
0.0
  0
LINE
  5
367
330
303
100
AcDbEntity
  8
0
 62
     0
 48
0.3
370
    -2
100
AcDbLine
 10
1.83598018624987
 20
5.719723668392608
 30
0.0
 11
2.287527969882485
 21
5.384078086649834
 31
0.0
  0
MTEXT
  5
368
330
303
100
AcDbEntity
  8
0
 62
     0
 48
0.3
100
AcDbMText
 10
1.070980186249869
 20
5.719723668392609
 30
0.0
 40
0.125
 41
0.0
 71
     5
 72
     1
  1
\A1;\U+22050.250
 73
     1
 44
1.0
  0
SOLID
  5
369
330
303
100
AcDbEntity
  8
0
 62
     0
 48
0.3
100
AcDbTrace
 10
2.29995639887227
 20
5.400798192230351
 30
0.0
 11
2.275099540892699
 21
5.367357981069318
 31
0.0
 12
2.387848603365585
 22
5.309507512711118
 32
0.0
 13
2.387848603365585
 23
5.309507512711118
 33
0.0
  0
LINE
  5
36A
330
303
100
AcDbEntity
  8
0
 62
     0
 48
0.3
370
    -2
100
AcDbLine
 10
2.398169236848685
 20
5.234936938772402
 30
0.0
 11
2.578169236848685
 21
5.234936938772402
 31
0.0
  0
LINE
  5
36B
330
303
100
AcDbEntity
  8
0
 62
     0
 48
0.3
370
    -2
100
AcDbLine
 10
2.488169236848685
 20
5.144936938772403
 30
0.0
 11
2.488169236848685
 21
5.324936938772403
 31
0.0
  0
POINT
  5
36C
330
303
100
AcDbEntity
  8
Defpoints
 62
     0
 48
0.3
100
AcDbPoint
 10
2.387848603365585
 20
5.309507512711118
 30
0.0
  0
POINT
  5
36D
330
303
100
AcDbEntity
  8
Defpoints
 62
     0
 48
0.3
100
AcDbPoint
 10
2.588489870331785
 20
5.160366364833688
 30
0.0
  0
ENDBLK
  5
30D
330
303
100
AcDbEntity
  8
0
 48
0.3
100
AcDbBlockEnd
  0
BLOCK
  5
317
330
30E
100
AcDbEntity
  8
0
 48
0.3
100
AcDbBlockBegin
  2
*D31
 70
     1
 10
0.0
 20
0.0
 30
0.0
  3
*D31
  1

  0
LINE
  5
3A4
330
30E
100
AcDbEntity
  8
0
 62
     0
 48
0.3
370
    -2
100
AcDbLine
 10
4.77735991631833
 20
4.346499784976614
 30
0.0
 11
4.389443249651661
 21
4.346499784976614
 31
0.0
  0
LINE
  5
3A5
330
30E
100
AcDbEntity
  8
0
 62
     0
 48
0.3
370
    -2
100
AcDbLine
 10
4.389443249651661
 20
4.346499784976614
 30
0.0
 11
4.049686020720532
 21
3.462179025681294
 31
0.0
  0
MTEXT
  5
3A6
330
30E
100
AcDbEntity
  8
0
 62
     0
 48
0.3
100
AcDbMText
 10
5.169443249651663
 20
4.346499784976614
 30
0.0
 40
0.125
 41
0.0
 71
     5
 72
     1
  1
\A1;\U+22050.344
 73
     1
 44
1.0
  0
SOLID
  5
3A7
330
30E
100
AcDbEntity
  8
0
 62
     0
 48
0.3
100
AcDbTrace
 10
4.030238624051838
 20
3.469650741721688
 30
0.0
 11
4.069133417389226
 21
3.454707309640901
 31
0.0
 12
4.004855724478171
 22
3.345494645669134
 32
0.0
 13
4.004855724478171
 23
3.345494645669134
 33
0.0
  0
LINE
  5
3A8
330
30E
100
AcDbEntity
  8
0
 62
     0
 48
0.3
370
    -2
100
AcDbLine
 10
3.853169236848684
 20
3.184936938772402
 30
0.0
 11
4.033169236848683
 21
3.184936938772401
 31
0.0
  0
LINE
  5
3A9
330
30E
100
AcDbEntity
  8
0
 62
     0
 48
0.3
370
    -2
100
AcDbLine
 10
3.943169236848684
 20
3.094936938772401
 30
0.0
 11
3.943169236848684
 21
3.274936938772401
 31
0.0
  0
POINT
  5
3AA
330
30E
100
AcDbEntity
  8
Defpoints
 62
     0
 48
0.3
100
AcDbPoint
 10
4.004855724478171
 20
3.345494645669134
 30
0.0
  0
POINT
  5
3AB
330
30E
100
AcDbEntity
  8
Defpoints
 62
     0
 48
0.3
100
AcDbPoint
 10
3.881482749219196
 20
3.02437923187567
 30
0.0
  0
ENDBLK
  5
318
330
30E
100
AcDbEntity
  8
0
 48
0.3
100
AcDbBlockEnd
  0
BLOCK
  5
322
330
319
100
AcDbEntity
  8
0
 48
0.3
100
AcDbBlockBegin
  2
*D32
 70
     1
 10
0.0
 20
0.0
 30
0.0
  3
*D32
  1

  0
LINE
  5
376
330
319
100
AcDbEntity
  8
0
 62
     0
 48
0.3
370
    -2
100
AcDbLine
 10
4.933230052046903
 20
2.333375335071596
 30
0.0
 11
4.54989671871357
 21
2.333375335071596
 31
0.0
  0
LINE
  5
377
330
319
100
AcDbEntity
  8
0
 62
     0
 48
0.3
370
    -2
100
AcDbLine
 10
4.54989671871357
 20
2.333375335071596
 30
0.0
 11
4.07460001667987
 21
3.000469597183256
 31
0.0
  0
MTEXT
  5
378
330
319
100
AcDbEntity
  8
0
 62
     0
 48
0.3
100
AcDbMText
 10
5.31489671871357
 20
2.333375335071596
 30
0.0
 40
0.125
 41
0.0
 71
     5
 72
     1
  1
\A1;\U+22050.203
 73
     1
 44
1.0
  0
SOLID
  5
379
330
319
100
AcDbEntity
  8
0
 62
     0
 48
0.3
100
AcDbTrace
 10
4.091567211454441
 20
3.012558521008788
 30
0.0
 11
4.057632821905298
 21
2.988380673357724
 31
0.0
 12
4.002066473726676
 22
3.102272765830687
 32
0.0
 13
4.002066473726676
 23
3.102272765830687
 33
0.0
  0
LINE
  5
37A
330
319
100
AcDbEntity
  8
0
 62
     0
 48
0.3
370
    -2
100
AcDbLine
 10
3.853169236848684
 20
3.184936938772402
 30
0.0
 11
4.033169236848683
 21
3.184936938772402
 31
0.0
  0
LINE
  5
37B
330
319
100
AcDbEntity
  8
0
 62
     0
 48
0.3
370
    -2
100
AcDbLine
 10
3.943169236848683
 20
3.094936938772402
 30
0.0
 11
3.943169236848684
 21
3.274936938772402
 31
0.0
  0
POINT
  5
37C
330
319
100
AcDbEntity
  8
Defpoints
 62
     0
 48
0.3
100
AcDbPoint
 10
4.002066473726676
 20
3.102272765830687
 30
0.0
  0
POINT
  5
37D
330
319
100
AcDbEntity
  8
Defpoints
 62
     0
 48
0.3
100
AcDbPoint
 10
3.884271999970691
 20
3.267601111714116
 30
0.0
  0
ENDBLK
  5
323
330
319
100
AcDbEntity
  8
0
 48
0.3
100
AcDbBlockEnd
  0
BLOCK
  5
32F
330
324
100
AcDbEntity
  8
0
 48
0.3
100
AcDbBlockBegin
  2
*D33
 70
     1
 10
0.0
 20
0.0
 30
0.0
  3
*D33
  1

  0
LINE
  5
325
330
324
100
AcDbEntity
  8
0
 62
     0
 48
0.3
370
    -2
100
AcDbLine
 10
6.490010927050093
 20
5.434936938772402
 30
0.0
 11
7.652576061366795
 21
5.434936938772402
 31
0.0
  0
LINE
  5
326
330
324
100
AcDbEntity
  8
0
 62
     0
 48
0.3
370
    -2
100
AcDbLine
 10
6.490010927050093
 20
0.9349369387724033
 30
0.0
 11
7.652576061366794
 21
0.934936938772403
 31
0.0
  0
LINE
  5
327
330
324
100
AcDbEntity
  8
0
 62
     0
 48
0.3
370
    -2
100
AcDbLine
 10
7.472576061366795
 20
5.309936938772402
 30
0.0
 11
7.472576061366795
 21
3.1574369387724
 31
0.0
  0
LINE
  5
328
330
324
100
AcDbEntity
  8
0
 62
     0
 48
0.3
370
    -2
100
AcDbLine
 10
7.472576061366794
 20
1.059936938772403
 30
0.0
 11
7.472576061366795
 21
2.852436938772401
 31
0.0
  0
SOLID
  5
329
330
324
100
AcDbEntity
  8
0
 62
     0
 48
0.3
100
AcDbTrace
 10
7.451742728033462
 20
5.309936938772402
 30
0.0
 11
7.493409394700128
 21
5.309936938772402
 31
0.0
 12
7.472576061366795
 22
5.434936938772402
 32
0.0
 13
7.472576061366795
 23
5.434936938772402
 33
0.0
  0
SOLID
  5
32A
330
324
100
AcDbEntity
  8
0
 62
     0
 48
0.3
100
AcDbTrace
 10
7.451742728033461
 20
1.059936938772403
 30
0.0
 11
7.493409394700127
 21
1.059936938772403
 31
0.0
 12
7.472576061366794
 22
0.934936938772403
 32
0.0
 13
7.472576061366794
 23
0.934936938772403
 33
0.0
  0
MTEXT
  5
32B
330
324
100
AcDbEntity
  8
0
 62
     0
 48
0.3
100
AcDbMText
 10
7.472576061366794
 20
3.004936938772402
 30
0.0
 40
0.125
 41
0.0
 71
     5
 72
     1
  1
\A1;4.500
 73
     1
 44
1.0
  0
POINT
  5
32C
330
324
100
AcDbEntity
  8
Defpoints
 62
     0
 48
0.3
100
AcDbPoint
 10
6.427510927050093
 20
5.434936938772402
 30
0.0
  0
POINT
  5
32D
330
324
100
AcDbEntity
  8
Defpoints
 62
     0
 48
0.3
100
AcDbPoint
 10
6.427510927050093
 20
0.9349369387724033
 30
0.0
  0
POINT
  5
32E
330
324
100
AcDbEntity
  8
Defpoints
 62
     0
 48
0.3
100
AcDbPoint
 10
7.472576061366794
 20
0.934936938772403
 30
0.0
  0
ENDBLK
  5
330
330
324
100
AcDbEntity
  8
0
 48
0.3
100
AcDbBlockEnd
  0
BLOCK
  5
33C
330
331
100
AcDbEntity
  8
0
 48
0.3
100
AcDbBlockBegin
  2
*D34
 70
     1
 10
0.0
 20
0.0
 30
0.0
  3
*D34
  1

  0
LINE
  5
332
330
331
100
AcDbEntity
  8
0
 62
     0
 48
0.3
370
    -2
100
AcDbLine
 10
6.052510927050093
 20
1.620436938772402
 30
0.0
 11
6.052510927050093
 21
2.24577439046795
 31
0.0
  0
LINE
  5
333
330
331
100
AcDbEntity
  8
0
 62
     0
 48
0.3
370
    -2
100
AcDbLine
 10
6.240010927050093
 20
1.620436938772402
 30
0.0
 11
6.240010927050093
 21
2.24577439046795
 31
0.0
  0
LINE
  5
334
330
331
100
AcDbEntity
  8
0
 62
     0
 48
0.3
370
    -2
100
AcDbLine
 10
5.927510927050093
 20
2.06577439046795
 30
0.0
 11
5.802510927050093
 21
2.06577439046795
 31
0.0
  0
LINE
  5
335
330
331
100
AcDbEntity
  8
0
 62
     0
 48
0.3
370
    -2
100
AcDbLine
 10
6.365010927050093
 20
2.06577439046795
 30
0.0
 11
6.490010927050093
 21
2.06577439046795
 31
0.0
  0
SOLID
  5
336
330
331
100
AcDbEntity
  8
0
 62
     0
 48
0.3
100
AcDbTrace
 10
5.927510927050093
 20
2.086607723801284
 30
0.0
 11
5.927510927050093
 21
2.044941057134617
 31
0.0
 12
6.052510927050093
 22
2.06577439046795
 32
0.0
 13
6.052510927050093
 23
2.06577439046795
 33
0.0
  0
SOLID
  5
337
330
331
100
AcDbEntity
  8
0
 62
     0
 48
0.3
100
AcDbTrace
 10
6.365010927050093
 20
2.086607723801284
 30
0.0
 11
6.365010927050093
 21
2.044941057134617
 31
0.0
 12
6.240010927050093
 22
2.06577439046795
 32
0.0
 13
6.240010927050093
 23
2.06577439046795
 33
0.0
  0
MTEXT
  5
338
330
331
100
AcDbEntity
  8
0
 62
     0
 48
0.3
100
AcDbMText
 10
6.798760927050093
 20
2.06577439046795
 30
0.0
 40
0.125
 41
0.0
 71
     5
 72
     1
  1
\A1;0.188
 73
     1
 44
1.0
  0
POINT
  5
339
330
331
100
AcDbEntity
  8
Defpoints
 62
     0
 48
0.3
100
AcDbPoint
 10
6.052510927050093
 20
1.557936938772402
 30
0.0
  0
POINT
  5
33A
330
331
100
AcDbEntity
  8
Defpoints
 62
     0
 48
0.3
100
AcDbPoint
 10
6.240010927050093
 20
1.557936938772402
 30
0.0
  0
POINT
  5
33B
330
331
100
AcDbEntity
  8
Defpoints
 62
     0
 48
0.3
100
AcDbPoint
 10
6.240010927050093
 20
2.06577439046795
 30
0.0
  0
ENDBLK
  5
33D
330
331
100
AcDbEntity
  8
0
 48
0.3
100
AcDbBlockEnd
  0
BLOCK
  5
349
330
33E
100
AcDbEntity
  8
0
 48
0.3
100
AcDbBlockBegin
  2
*D35
 70
     1
 10
0.0
 20
0.0
 30
0.0
  3
*D35
  1

  0
LINE
  5
33F
330
33E
100
AcDbEntity
  8
0
 62
     0
 48
0.3
370
    -2
100
AcDbLine
 10
6.052510927050093
 20
5.497436938772402
 30
0.0
 11
6.052510927050093
 21
5.920583629216078
 31
0.0
  0
LINE
  5
340
330
33E
100
AcDbEntity
  8
0
 62
     0
 48
0.3
370
    -2
100
AcDbLine
 10
6.427510927050093
 20
5.497436938772402
 30
0.0
 11
6.427510927050093
 21
5.920583629216078
 31
0.0
  0
LINE
  5
341
330
33E
100
AcDbEntity
  8
0
 62
     0
 48
0.3
370
    -2
100
AcDbLine
 10
5.927510927050093
 20
5.740583629216079
 30
0.0
 11
5.802510927050093
 21
5.740583629216079
 31
0.0
  0
LINE
  5
342
330
33E
100
AcDbEntity
  8
0
 62
     0
 48
0.3
370
    -2
100
AcDbLine
 10
6.552510927050093
 20
5.740583629216079
 30
0.0
 11
6.677510927050093
 21
5.740583629216079
 31
0.0
  0
SOLID
  5
343
330
33E
100
AcDbEntity
  8
0
 62
     0
 48
0.3
100
AcDbTrace
 10
5.927510927050093
 20
5.761416962549412
 30
0.0
 11
5.927510927050093
 21
5.719750295882746
 31
0.0
 12
6.052510927050093
 22
5.740583629216079
 32
0.0
 13
6.052510927050093
 23
5.740583629216079
 33
0.0
  0
SOLID
  5
344
330
33E
100
AcDbEntity
  8
0
 62
     0
 48
0.3
100
AcDbTrace
 10
6.552510927050093
 20
5.761416962549412
 30
0.0
 11
6.552510927050093
 21
5.719750295882746
 31
0.0
 12
6.427510927050093
 22
5.740583629216079
 32
0.0
 13
6.427510927050093
 23
5.740583629216079
 33
0.0
  0
MTEXT
  5
345
330
33E
100
AcDbEntity
  8
0
 62
     0
 48
0.3
100
AcDbMText
 10
7.007094260383427
 20
5.740583629216079
 30
0.0
 40
0.125
 41
0.0
 71
     5
 72
     1
  1
\A1;0.375
 73
     1
 44
1.0
  0
POINT
  5
346
330
33E
100
AcDbEntity
  8
Defpoints
 62
     0
 48
0.3
100
AcDbPoint
 10
6.052510927050093
 20
5.434936938772402
 30
0.0
  0
POINT
  5
347
330
33E
100
AcDbEntity
  8
Defpoints
 62
     0
 48
0.3
100
AcDbPoint
 10
6.427510927050093
 20
5.434936938772402
 30
0.0
  0
POINT
  5
348
330
33E
100
AcDbEntity
  8
Defpoints
 62
     0
 48
0.3
100
AcDbPoint
 10
6.427510927050093
 20
5.740583629216079
 30
0.0
  0
ENDBLK
  5
34A
330
33E
100
AcDbEntity
  8
0
 48
0.3
100
AcDbBlockEnd
  0
BLOCK
  5
356
330
34B
100
AcDbEntity
  8
0
 48
0.3
100
AcDbBlockBegin
  2
*D36
 70
     1
 10
0.0
 20
0.0
 30
0.0
  3
*D36
  1

  0
LINE
  5
34C
330
34B
100
AcDbEntity
  8
0
 62
     0
 48
0.3
370
    -2
100
AcDbLine
 10
6.177510927050093
 20
3.730955655183908
 30
0.0
 11
6.177510927050093
 21
6.100583629216078
 31
0.0
  0
LINE
  5
34D
330
34B
100
AcDbEntity
  8
0
 62
     0
 48
0.3
370
    -2
100
AcDbLine
 10
6.052510927050093
 20
3.730955655183908
 30
0.0
 11
6.052510927050093
 21
6.100583629216078
 31
0.0
  0
LINE
  5
34E
330
34B
100
AcDbEntity
  8
0
 62
     0
 48
0.3
370
    -2
100
AcDbLine
 10
6.302510927050093
 20
5.920583629216078
 30
0.0
 11
6.427510927050093
 21
5.920583629216078
 31
0.0
  0
LINE
  5
34F
330
34B
100
AcDbEntity
  8
0
 62
     0
 48
0.3
370
    -2
100
AcDbLine
 10
5.927510927050093
 20
5.920583629216078
 30
0.0
 11
5.802510927050093
 21
5.920583629216078
 31
0.0
  0
SOLID
  5
350
330
34B
100
AcDbEntity
  8
0
 62
     0
 48
0.3
100
AcDbTrace
 10
6.302510927050093
 20
5.941416962549411
 30
0.0
 11
6.302510927050093
 21
5.899750295882745
 31
0.0
 12
6.177510927050093
 22
5.920583629216078
 32
0.0
 13
6.177510927050093
 23
5.920583629216078
 33
0.0
  0
SOLID
  5
351
330
34B
100
AcDbEntity
  8
0
 62
     0
 48
0.3
100
AcDbTrace
 10
5.927510927050093
 20
5.941416962549411
 30
0.0
 11
5.927510927050093
 21
5.899750295882745
 31
0.0
 12
6.052510927050093
 22
5.920583629216078
 32
0.0
 13
6.052510927050093
 23
5.920583629216078
 33
0.0
  0
MTEXT
  5
352
330
34B
100
AcDbEntity
  8
0
 62
     0
 48
0.3
100
AcDbMText
 10
5.493760927050093
 20
5.920583629216078
 30
0.0
 40
0.125
 41
0.0
 71
     5
 72
     1
  1
\A1;0.125
 73
     1
 44
1.0
  0
POINT
  5
353
330
34B
100
AcDbEntity
  8
Defpoints
 62
     0
 48
0.3
100
AcDbPoint
 10
6.177510927050093
 20
3.668455655183908
 30
0.0
  0
POINT
  5
354
330
34B
100
AcDbEntity
  8
Defpoints
 62
     0
 48
0.3
100
AcDbPoint
 10
6.052510927050093
 20
3.668455655183908
 30
0.0
  0
POINT
  5
355
330
34B
100
AcDbEntity
  8
Defpoints
 62
     0
 48
0.3
100
AcDbPoint
 10
6.052510927050093
 20
5.920583629216078
 30
0.0
  0
ENDBLK
  5
357
330
34B
100
AcDbEntity
  8
0
 48
0.3
100
AcDbBlockEnd
  0
BLOCK
  5
364
330
358
100
AcDbEntity
  8
0
 48
0.3
100
AcDbBlockBegin
  2
*D37
 70
     1
 10
0.0
 20
0.0
 30
0.0
  3
*D37
  1

  0
LINE
  5
359
330
358
100
AcDbEntity
  8
0
 62
     0
 48
0.3
370
    -2
100
AcDbLine
 10
5.990010927050093
 20
3.408455655183908
 30
0.0
 11
4.738181173462116
 21
3.408455655183909
 31
0.0
  0
LINE
  5
35A
330
358
100
AcDbEntity
  8
0
 62
     0
 48
0.3
370
    -2
100
AcDbLine
 10
5.990010927050093
 20
3.668455655183908
 30
0.0
 11
4.738181173462116
 21
3.668455655183909
 31
0.0
  0
LINE
  5
35B
330
358
100
AcDbEntity
  8
0
 62
     0
 48
0.3
370
    -2
100
AcDbLine
 10
4.918181173462116
 20
3.283455655183909
 30
0.0
 11
4.918181173462116
 21
3.158455655183909
 31
0.0
  0
LINE
  5
35C
330
358
100
AcDbEntity
  8
0
 62
     0
 48
0.3
370
    -2
100
AcDbLine
 10
4.918181173462116
 20
3.793455655183909
 30
0.0
 11
4.918181173462116
 21
3.918455655183909
 31
0.0
  0
LINE
  5
35D
330
358
100
AcDbEntity
  8
0
 62
     0
 48
0.3
370
    -2
100
AcDbLine
 10
4.918181173462116
 20
3.918455655183909
 30
0.0
 11
5.043181173462116
 21
3.918455655183908
 31
0.0
  0
SOLID
  5
35E
330
358
100
AcDbEntity
  8
0
 62
     0
 48
0.3
100
AcDbTrace
 10
4.897347840128783
 20
3.283455655183909
 30
0.0
 11
4.939014506795449
 21
3.283455655183909
 31
0.0
 12
4.918181173462116
 22
3.408455655183909
 32
0.0
 13
4.918181173462116
 23
3.408455655183909
 33
0.0
  0
SOLID
  5
35F
330
358
100
AcDbEntity
  8
0
 62
     0
 48
0.3
100
AcDbTrace
 10
4.897347840128783
 20
3.793455655183909
 30
0.0
 11
4.939014506795449
 21
3.793455655183909
 31
0.0
 12
4.918181173462116
 22
3.668455655183909
 32
0.0
 13
4.918181173462116
 23
3.668455655183909
 33
0.0
  0
MTEXT
  5
360
330
358
100
AcDbEntity
  8
0
 62
     0
 48
0.3
100
AcDbMText
 10
5.362347840128782
 20
3.918455655183909
 30
0.0
 40
0.125
 41
0.0
 71
     5
 72
     1
  1
\A1;0.260
 73
     1
 44
1.0
  0
POINT
  5
361
330
358
100
AcDbEntity
  8
Defpoints
 62
     0
 48
0.3
100
AcDbPoint
 10
6.052510927050093
 20
3.408455655183908
 30
0.0
  0
POINT
  5
362
330
358
100
AcDbEntity
  8
Defpoints
 62
     0
 48
0.3
100
AcDbPoint
 10
6.052510927050093
 20
3.668455655183908
 30
0.0
  0
POINT
  5
363
330
358
100
AcDbEntity
  8
Defpoints
 62
     0
 48
0.3
100
AcDbPoint
 10
4.918181173462116
 20
3.668455655183909
 30
0.0
  0
ENDBLK
  5
365
330
358
100
AcDbEntity
  8
0
 48
0.3
100
AcDbBlockEnd
  0
ENDSEC
  0
SECTION
  2
ENTITIES
  0
VIEWPORT
  5
77
330
58
100
AcDbEntity
 67
     1
  8
0
100
AcDbViewport
 10
4.097950490652145
 20
2.388007760809765
 30
0.0
 40
20.55438720777462
 41
8.540702270816698
 68
     1
 69
     1
 12
4.097950490652145
 22
2.388007760809765
 13
0.0
 23
0.0
 14
0.5
 24
0.5
 15
0.5
 25
0.5
 16
0.0
 26
0.0
 36
1.0
 17
0.0
 27
0.0
 37
0.0
 42
50.0
 43
0.0
 44
0.0
 45
8.540702270816698
 50
0.0
 51
0.0
 72
   100
 90
    32800
  1

281
     0
 71
     1
 74
     0
110
0.0
120
0.0
130
0.0
111
1.0
121
0.0
131
0.0
112
0.0
122
1.0
132
0.0
 79
     0
146
0.0
  0
LWPOLYLINE
  5
86
330
58
100
AcDbEntity
 67
     1
  8
0
100
AcDbPolyline
 90
        4
 70
     1
 43
0.0
 10
-1.439262267973589
 20
6.396855050259421
 10
8.966538218833356
 20
6.396855050259421
 10
8.966538218833356
 20
-1.41285528304607
 10
-1.439262267973589
 20
-1.41285528304607
  0
LINE
  5
8A
330
58
100
AcDbEntity
 67
     1
  8
0
100
AcDbLine
 10
8.966538218833356
 20
-1.41285528304607
 30
0.0
 11
8.966538218833356
 21
-0.4128552830460706
 31
0.0
  0
LINE
  5
8B
330
58
100
AcDbEntity
 67
     1
  8
0
100
AcDbLine
 10
8.966538218833356
 20
-0.4128552830460706
 30
0.0
 11
6.466538218833356
 21
-0.4128552830460703
 31
0.0
  0
LINE
  5
8C
330
58
100
AcDbEntity
 67
     1
  8
0
100
AcDbLine
 10
6.466538218833356
 20
-0.4128552830460703
 30
0.0
 11
4.966538218833356
 21
-0.4128552830460701
 31
0.0
  0
LINE
  5
8D
330
58
100
AcDbEntity
 67
     1
  8
0
100
AcDbLine
 10
4.966538218833356
 20
-0.4128552830460701
 30
0.0
 11
4.966538218833356
 21
-1.41285528304607
 31
0.0
  0
LINE
  5
8E
330
58
100
AcDbEntity
 67
     1
  8
0
100
AcDbLine
 10
6.466538218833356
 20
-0.4128552830460703
 30
0.0
 11
6.466538218833356
 21
-1.40425062323316
 31
0.0
  0
MTEXT
  5
8F
330
58
100
AcDbEntity
 67
     1
  8
0
100
AcDbMText
 10
5.02064872125895
 20
-0.5532836662080878
 30
0.0
 40
0.1
 41
1.5
 71
     1
 72
     5
  1
  Tolerances\P.XXXX = +/- .001\P.XXX  = +/- .005\P.XX   = +/- .015
 73
     1
 44
1.0
  0
MTEXT
  5
AC
330
58
100
AcDbEntity
 67
     1
  8
0
 48
0.3
100
AcDbMText
 10
-0.8330378939457148
 20
-0.9104262006358538
 30
0.0
 40
0.1625
 41
9.997099999999999
 71
     1
 72
     5
  1
{\fArial|b0|i0|c0|p32;© Daniel E. Kemp 2010}
 73
     1
 44
1.0
  0
CIRCLE
  5
20A
102
{ACAD_REACTORS
330
253
102
}
330
58
100
AcDbEntity
 67
     1
  8
0
 48
0.3
100
AcDbCircle
 10
3.943169236848683
 20
3.184936938772401
 30
0.0
 40
0.172
  0
DIMENSION
  5
20B
102
{ACAD_XDICTIONARY
360
20C
102
}
102
{ACAD_REACTORS
330
20D
102
}
330
58
100
AcDbEntity
 67
     1
  8
0
 48
0.3
100
AcDbDimension
  2
*D21
 10
3.115096242560046
 20
1.182321250470339
 30
0.0
 11
3.942203248221232
 21
1.329257915226891
 31
0.0
 70
   163
 71
     5
 42
0.2500000000000004
  3
Standard
100
AcDbDiametricDimension
 15
3.361242231137317
 25
1.226049414247451
 35
0.0
 40
0.0
1001
ACAD
1000
DSTYLE
1002
{
1070
   288
1070
     1
1002
}
  0
DIMENSION
  5
20E
102
{ACAD_XDICTIONARY
360
20F
102
}
102
{ACAD_REACTORS
330
210
102
}
330
58
100
AcDbEntity
 67
     1
  8
0
 48
0.3
100
AcDbDimension
  2
*D22
 10
3.64257583758201
 20
4.969025053239659
 30
0.0
 11
4.426025849886543
 21
5.210149819558417
 31
0.0
 70
    36
 71
     5
 42
0.125
  3
Standard
100
AcDbRadialDimension
 15
3.738309175016854
 25
5.049399975345911
 35
0.0
 40
0.0
1001
ACAD
1000
DSTYLE
1002
{
1070
   288
1070
     1
1002
}
  0
DIMENSION
  5
211
102
{ACAD_XDICTIONARY
360
212
102
}
102
{ACAD_REACTORS
330
213
102
}
330
58
100
AcDbEntity
 67
     1
  8
0
 48
0.3
100
AcDbDimension
  2
*D23
 10
2.488169236848683
 20
3.184936938772402
 30
0.0
 11
5.050508835399472
 21
3.012247002331687
 31
0.0
 70
    36
 71
     5
 42
1.937499999999997
  3
Standard
100
AcDbRadialDimension
 15
4.419622405088905
 25
3.031982995067768
 35
0.0
 40
0.0
1001
ACAD
1000
DSTYLE
1002
{
1070
   288
1070
     1
1002
}
  0
DIMENSION
  5
214
102
{ACAD_XDICTIONARY
360
215
102
}
102
{ACAD_REACTORS
330
216
102
}
330
58
100
AcDbEntity
 67
     1
  8
0
 48
0.3
100
AcDbDimension
  2
*D24
 10
2.488169236848682
 20
3.184936938772402
 30
0.0
 11
3.716698082917152
 21
5.581569009493528
 31
0.0
 70
    36
 71
     5
 42
2.249999999999999
  3
Standard
100
AcDbRadialDimension
 15
3.128470198310306
 25
5.341905802421416
 35
0.0
 40
0.0
1001
ACAD
1000
DSTYLE
1002
{
1070
   288
1070
     1
1002
}
  0
DIMENSION
  5
217
102
{ACAD_XDICTIONARY
360
218
102
}
102
{ACAD_REACTORS
330
219
102
}
330
58
100
AcDbEntity
 67
     1
  8
0
 48
0.3
100
AcDbDimension
  2
*D25
 10
1.892360375931515
 20
3.825746427819332
 30
0.0
 11
4.55746028602241
 21
1.766001641597057
 31
0.0
 70
   163
 71
     5
 42
1.75
  3
Standard
100
AcDbDiametricDimension
 15
3.083978097765851
 25
2.544127449725473
 35
0.0
 40
0.0
1001
ACAD
1000
DSTYLE
1002
{
1070
   288
1070
     1
1002
}
  0
CIRCLE
  5
21A
102
{ACAD_REACTORS
330
256
102
}
330
58
100
AcDbEntity
 67
     1
  8
0
100
AcDbCircle
 10
3.943169236848683
 20
3.184936938772401
 30
0.0
 40
0.1015
  0
ARC
  5
21B
102
{ACAD_REACTORS
330
213
330
21F
102
}
330
58
100
AcDbEntity
 67
     1
  8
0
100
AcDbCircle
 10
2.488169236848683
 20
3.184936938772402
 30
0.0
 40
1.9375
100
AcDbArc
 50
312.9159221946999
 51
47.08407780529985
  0
CIRCLE
  5
21C
330
58
100
AcDbEntity
 67
     1
  8
0
 48
0.3
100
AcDbCircle
 10
1.033169236848683
 20
3.184936938772402
 30
0.0
 40
0.172
  0
DIMENSION
  5
21D
102
{ACAD_XDICTIONARY
360
21E
102
}
102
{ACAD_REACTORS
330
21F
102
}
330
58
100
AcDbEntity
 67
     1
  8
0
 48
0.3
100
AcDbDimension
  2
*D26
 10
0.1064820668870392
 20
1.729936938772403
 30
0.0
 11
0.106482066887039
 21
2.457436938772402
 31
0.0
 70
    32
 71
     5
 42
1.455
  3
Standard
100
AcDbAlignedDimension
 13
2.488169236848683
 23
3.184936938772402
 33
0.0
 14
2.488169236848682
 24
1.729936938772402
 34
0.0
 50
90.0
100
AcDbRotatedDimension
  0
DIMENSION
  5
220
102
{ACAD_XDICTIONARY
360
221
102
}
102
{ACAD_REACTORS
330
222
102
}
330
58
100
AcDbEntity
 67
     1
  8
0
 48
0.3
100
AcDbDimension
  2
*D27
 10
0.5506692368486839
 20
3.184936938772402
 30
0.0
 11
0.3594707713208689
 21
3.588670707470715
 31
0.0
 70
    34
 71
     5
 42
0.436332312998581
  3
Standard
100
AcDb2LineAngularDimension
 13
1.183228862822393
 23
3.650016926457639
 33
0.0
 14
1.649014737409654
 24
3.432817406077176
 34
0.0
 15
1.613169236848683
 25
3.184936938772402
 35
0.0
 16
0.3936186336487334
 26
3.719922877392778
 36
0.0
  0
DIMENSION
  5
223
102
{ACAD_XDICTIONARY
360
224
102
}
102
{ACAD_REACTORS
330
225
102
}
330
58
100
AcDbEntity
 67
     1
  8
0
 48
0.3
100
AcDbDimension
  2
*D28
 10
2.488169236848685
 20
5.234936938772403
 30
0.0
 11
0.7234067538139652
 21
0.8623296025441398
 31
0.0
 70
    36
 71
     5
 42
4.300000000000003
  3
Standard
100
AcDbRadialDimension
 15
1.299199564237118
 25
1.102582752886352
 35
0.0
 40
0.0
1001
ACAD
1000
DSTYLE
1002
{
1070
   279
1070
     1
1070
   288
1070
     1
1002
}
  0
CIRCLE
  5
226
102
{ACAD_REACTORS
330
219
102
}
330
58
100
AcDbEntity
 67
     1
  8
0
100
AcDbCircle
 10
2.488169236848683
 20
3.184936938772402
 30
0.0
 40
0.875
  0
ARC
  5
227
330
58
100
AcDbEntity
 67
     1
  8
0
100
AcDbCircle
 10
2.488169236848683
 20
3.184936938772402
 30
0.0
 40
1.9375
100
AcDbArc
 50
132.9159221947
 51
227.0840778052999
  0
DIMENSION
  5
229
102
{ACAD_XDICTIONARY
360
22A
102
}
102
{ACAD_REACTORS
330
22B
102
}
330
58
100
AcDbEntity
 67
     1
  8
0
 48
0.3
100
AcDbDimension
  2
*D29
 10
3.238169236848682
 20
0.5620546444854462
 30
0.0
 11
2.488169236848682
 21
0.5620546444854462
 31
0.0
 70
    32
 71
     5
 42
1.499999999999999
  3
Standard
100
AcDbAlignedDimension
 13
1.738169236848682
 23
1.204185332358896
 33
0.0
 14
3.238169236848682
 24
1.204185332358895
 34
0.0
100
AcDbRotatedDimension
  0
ARC
  5
22C
330
58
100
AcDbEntity
 67
     1
  8
0
100
AcDbCircle
 10
2.488169236848685
 20
5.234936938772403
 30
0.0
 40
3.975
100
AcDbArc
 50
259.5172013507529
 51
280.5981166982383
  0
ARC
  5
22D
330
58
100
AcDbEntity
 67
     1
  8
0
100
AcDbCircle
 10
2.488169236848685
 20
5.234936938772403
 30
0.0
 40
4.224999999999999
100
AcDbArc
 50
259.7697908673489
 51
280.7050039311815
  0
ARC
  5
22E
102
{ACAD_REACTORS
330
225
102
}
330
58
100
AcDbEntity
 67
     1
  8
0
100
AcDbCircle
 10
2.488169236848685
 20
5.234936938772403
 30
0.0
 40
4.299999999999999
100
AcDbArc
 50
253.9483029063188
 51
286.051697093681
  0
ARC
  5
22F
330
58
100
AcDbEntity
 67
     1
  8
0
100
AcDbCircle
 10
1.083762636115359
 20
1.674457428876069
 30
0.0
 40
0.125
100
AcDbArc
 50
0.0
 51
47.08407780530004
  0
ARC
  5
230
330
58
100
AcDbEntity
 67
     1
  8
0
100
AcDbCircle
 10
1.333762636115358
 20
1.222709328057461
 30
0.0
 40
0.125
100
AcDbArc
 50
179.9999999999999
 51
253.9483029063184
  0
LINE
  5
231
330
58
100
AcDbEntity
 67
     1
  8
0
100
AcDbLine
 10
1.208762636115359
 20
1.67445742887607
 30
0.0
 11
1.208762636115357
 21
1.240719100453751
 31
0.0
  0
LINE
  5
232
330
58
100
AcDbEntity
 67
     1
  8
0
100
AcDbLine
 10
1.208762636115357
 20
1.240719100453751
 30
0.0
 11
1.208762636115358
 21
1.222709328057462
 31
0.0
  0
ARC
  5
233
102
{ACAD_REACTORS
330
22B
102
}
330
58
100
AcDbEntity
 67
     1
  8
0
100
AcDbCircle
 10
1.738169236848682
 20
1.204185332358896
 30
0.0
 40
0.125
100
AcDbArc
 50
77.62567255414528
 51
252.5370067752511
  0
LINE
  5
234
330
58
100
AcDbEntity
 67
     1
  8
0
100
AcDbLine
 10
1.700658019284658
 20
1.084946460522299
 30
0.0
 11
1.737793893071351
 21
1.077105551684772
 31
0.0
  0
CIRCLE
  5
235
330
58
100
AcDbEntity
 67
     1
  8
0
 48
0.3
100
AcDbCircle
 10
2.488169236848682
 20
1.729936938772402
 30
0.0
 40
0.172
  0
ARC
  5
236
330
58
100
AcDbEntity
 67
     1
  8
0
100
AcDbCircle
 10
3.892575837582008
 20
1.674457428876067
 30
0.0
 40
0.125
100
AcDbArc
 50
132.9159221947005
 51
179.9999999999999
  0
CIRCLE
  5
237
102
{ACAD_REACTORS
330
21F
102
}
330
58
100
AcDbEntity
 67
     1
  8
0
100
AcDbCircle
 10
2.488169236848682
 20
1.729936938772402
 30
0.0
 40
0.1015
  0
LINE
  5
238
330
58
100
AcDbEntity
 67
     1
  8
0
100
AcDbLine
 10
3.295408832620495
 20
1.093060948554621
 30
0.0
 11
3.272854612835556
 21
1.084094014218702
 31
0.0
  0
ARC
  5
239
102
{ACAD_REACTORS
330
22B
330
20D
102
}
330
58
100
AcDbEntity
 67
     1
  8
0
100
AcDbCircle
 10
3.238169236848682
 20
1.204185332358895
 30
0.0
 40
0.125
100
AcDbArc
 50
297.2527617186517
 51
102.3743274458547
  0
LINE
  5
23A
330
58
100
AcDbEntity
 67
     1
  8
0
100
AcDbLine
 10
3.767575837582006
 20
1.674457428876068
 30
0.0
 11
3.767575837582006
 21
1.240719100453749
 31
0.0
  0
LINE
  5
23B
330
58
100
AcDbEntity
 67
     1
  8
0
100
AcDbLine
 10
3.767575837582006
 20
1.240719100453749
 30
0.0
 11
3.767575837582008
 21
1.22270932805746
 31
0.0
  0
ARC
  5
23C
330
58
100
AcDbEntity
 67
     1
  8
0
100
AcDbCircle
 10
3.642575837582008
 20
1.22270932805746
 30
0.0
 40
0.125
100
AcDbArc
 50
286.051697093681
 51
0.0
  0
DIMENSION
  5
23D
330
58
100
AcDbEntity
 67
     1
  8
0
 48
0.3
100
AcDbDimension
  2
*D20
 10
0.089978209041675
 20
3.184936938772402
 30
0.0
 11
0.0899782090416745
 21
4.56828898665428
 31
0.0
 70
   160
 71
     5
 42
2.050000000000006
  3
Standard
100
AcDbAlignedDimension
 13
2.48816923684868
 23
5.234936938772407
 33
0.0
 14
2.488169236848683
 24
3.184936938772402
 34
0.0
 50
90.0
100
AcDbRotatedDimension
  0
DIMENSION
  5
23E
102
{ACAD_XDICTIONARY
360
23F
102
}
102
{ACAD_REACTORS
330
240
102
}
330
58
100
AcDbEntity
 67
     1
  8
0
 48
0.3
100
AcDbDimension
  2
*D30
 10
2.588489870331785
 20
5.160366364833688
 30
0.0
 11
1.070980186249869
 21
5.719723668392609
 31
0.0
 70
   163
 71
     5
 42
0.2499999999999991
  3
Standard
100
AcDbDiametricDimension
 15
2.387848603365585
 25
5.309507512711118
 35
0.0
 40
0.0
1001
ACAD
1000
DSTYLE
1002
{
1070
   288
1070
     1
1002
}
  0
ARC
  5
241
102
{ACAD_REACTORS
330
216
102
}
330
58
100
AcDbEntity
 67
     1
  8
0
100
AcDbCircle
 10
2.488169236848683
 20
3.184936938772402
 30
0.0
 40
2.25
100
AcDbArc
 50
57.09483304000947
 51
122.9051669599904
  0
LINE
  5
242
102
{ACAD_REACTORS
330
222
102
}
330
58
100
AcDbEntity
 67
     1
  8
0
100
AcDbLine
 10
1.183228862822393
 20
3.650016926457639
 30
0.0
 11
1.649014737409654
 21
3.432817406077176
 31
0.0
  0
LINE
  5
243
330
58
100
AcDbEntity
 67
     1
  8
0
100
AcDbLine
 10
1.293109610874974
 20
3.885656951087168
 30
0.0
 11
0.7911021648343409
 21
4.119746867626747
 31
0.0
  0
LINE
  5
244
330
58
100
AcDbEntity
 67
     1
  8
0
100
AcDbLine
 10
1.183228862822393
 20
3.650016926457639
 30
0.0
 11
0.6812214167817597
 21
3.884106842997218
 31
0.0
  0
CIRCLE
  5
245
330
58
100
AcDbEntity
 67
     1
  8
0
100
AcDbCircle
 10
1.033169236848683
 20
3.184936938772402
 30
0.0
 40
0.1015
  0
LINE
  5
246
330
58
100
AcDbEntity
 67
     1
  8
0
100
AcDbLine
 10
1.293109610874974
 20
3.885656951087168
 30
0.0
 11
1.75889929308316
 21
3.668455655183908
 31
0.0
  0
ARC
  5
247
330
58
100
AcDbEntity
 67
     1
  8
0
100
AcDbCircle
 10
1.333762636115359
 20
4.96902505323966
 30
0.0
 40
0.125
100
AcDbArc
 50
122.9051669599902
 51
179.9999999999999
  0
LINE
  5
248
330
58
100
AcDbEntity
 67
     1
  8
0
100
AcDbLine
 10
1.20876263611536
 20
4.695416448668736
 30
0.0
 11
1.208762636115361
 21
4.96902505323966
 31
0.0
  0
ARC
  5
249
330
58
100
AcDbEntity
 67
     1
  8
0
100
AcDbCircle
 10
1.083762636115359
 20
4.695416448668736
 30
0.0
 40
0.125
100
AcDbArc
 50
312.9159221946999
 51
0.0
  0
CIRCLE
  5
24A
330
58
100
AcDbEntity
 67
     1
  8
0
 48
0.3
100
AcDbCircle
 10
2.488169236848685
 20
4.639936938772402
 30
0.0
 40
0.172
  0
CIRCLE
  5
24B
330
58
100
AcDbEntity
 67
     1
  8
0
100
AcDbCircle
 10
2.488169236848685
 20
4.639936938772402
 30
0.0
 40
0.1015
  0
CIRCLE
  5
24C
102
{ACAD_REACTORS
330
240
102
}
330
58
100
AcDbEntity
 67
     1
  8
0
100
AcDbCircle
 10
2.488169236848685
 20
5.234936938772403
 30
0.0
 40
0.125
  0
ARC
  5
24D
102
{ACAD_REACTORS
330
210
102
}
330
58
100
AcDbEntity
 67
     1
  8
0
100
AcDbCircle
 10
3.642575837582009
 20
4.969025053239659
 30
0.0
 40
0.125
100
AcDbArc
 50
0.0
 51
57.09483304000952
  0
LINE
  5
24E
330
58
100
AcDbEntity
 67
     1
  8
0
100
AcDbLine
 10
3.767575837582008
 20
4.695416448668736
 30
0.0
 11
3.767575837582009
 21
4.969025053239659
 31
0.0
  0
ARC
  5
24F
330
58
100
AcDbEntity
 67
     1
  8
0
100
AcDbCircle
 10
3.892575837582009
 20
4.695416448668734
 30
0.0
 40
0.125
100
AcDbArc
 50
179.9999999999999
 51
227.0840778052999
  0
LINE
  5
250
330
58
100
AcDbEntity
 67
     1
  8
0
  6
HIDDENX2
 48
0.3
100
AcDbLine
 10
6.240010927050093
 20
3.345494645669133
 30
0.0
 11
6.240010927050093
 21
3.001494645669133
 31
0.0
  0
DIMENSION
  5
251
102
{ACAD_XDICTIONARY
360
252
102
}
102
{ACAD_REACTORS
330
253
102
}
330
58
100
AcDbEntity
 67
     1
  8
0
 48
0.3
100
AcDbDimension
  2
*D31
 10
3.881482749219196
 20
3.02437923187567
 30
0.0
 11
5.169443249651663
 21
4.346499784976614
 31
0.0
 70
   163
 71
     5
 42
0.3439999999999994
  3
Standard
100
AcDbDiametricDimension
 15
4.004855724478171
 25
3.345494645669134
 35
0.0
 40
0.0
1001
ACAD
1000
DSTYLE
1002
{
1070
   288
1070
     1
1002
}
  0
DIMENSION
  5
254
102
{ACAD_XDICTIONARY
360
255
102
}
102
{ACAD_REACTORS
330
256
102
}
330
58
100
AcDbEntity
 67
     1
  8
0
 48
0.3
100
AcDbDimension
  2
*D32
 10
3.884271999970691
 20
3.267601111714116
 30
0.0
 11
5.31489671871357
 21
2.333375335071596
 31
0.0
 70
   163
 71
     5
 42
0.2030000000000003
  3
Standard
100
AcDbDiametricDimension
 15
4.002066473726676
 25
3.102272765830687
 35
0.0
 40
0.0
1001
ACAD
1000
DSTYLE
1002
{
1070
   288
1070
     1
1002
}
  0
DIMENSION
  5
257
102
{ACAD_XDICTIONARY
360
258
102
}
102
{ACAD_REACTORS
330
259
102
}
330
58
100
AcDbEntity
 67
     1
  8
0
 48
0.3
100
AcDbDimension
  2
*D33
 10
7.472576061366794
 20
0.934936938772403
 30
0.0
 11
7.472576061366794
 21
3.004936938772402
 31
0.0
 70
   160
 71
     5
 42
4.499999999999999
  3
Standard
100
AcDbAlignedDimension
 13
6.427510927050093
 23
5.434936938772402
 33
0.0
 14
6.427510927050093
 24
0.9349369387724033
 34
0.0
 50
90.0
100
AcDbRotatedDimension
  0
LINE
  5
25A
102
{ACAD_REACTORS
330
26D
330
259
102
}
330
58
100
AcDbEntity
 67
     1
  8
0
100
AcDbLine
 10
6.427510927050093
 20
5.434936938772402
 30
0.0
 11
6.427510927050093
 21
0.9349369387724033
 31
0.0
  0
LINE
  5
25B
102
{ACAD_REACTORS
330
26D
102
}
330
58
100
AcDbEntity
 67
     1
  8
0
100
AcDbLine
 10
6.052510927050093
 20
0.9349369387724033
 30
0.0
 11
6.052510927050093
 21
5.434936938772402
 31
0.0
  0
DIMENSION
  5
25C
102
{ACAD_XDICTIONARY
360
25D
102
}
102
{ACAD_REACTORS
330
25E
102
}
330
58
100
AcDbEntity
 67
     1
  8
0
 48
0.3
100
AcDbDimension
  2
*D34
 10
6.240010927050093
 20
2.06577439046795
 30
0.0
 11
6.798760927050093
 21
2.06577439046795
 31
0.0
 70
    32
 71
     5
 42
0.1875
  3
Standard
100
AcDbAlignedDimension
 13
6.052510927050093
 23
1.557936938772402
 33
0.0
 14
6.240010927050093
 24
1.557936938772402
 34
0.0
100
AcDbRotatedDimension
  0
MTEXT
  5
25F
330
58
100
AcDbEntity
 67
     1
  8
0
 48
0.3
100
AcDbMText
 10
6.599010037613652
 20
-0.5576896709369197
 30
0.0
 40
0.1
 41
2.392399999999999
 71
     1
 72
     5
  1
G0704 BELT DRIVE \PMOTOR MOUNT \PB0TTOM VIEW\P{\fArial|b0|i0|c0|p32;\H0.8125x;©\fMS Shell Dlg|b0|i0|c0|p32;\H0.6538x; }Daniel E. Kemp\P04-20-2010
 73
     1
 44
1.0
  0
LINE
  5
260
330
58
100
AcDbEntity
 67
     1
  8
0
100
AcDbLine
 10
4.363122887608941
 20
2.684809605696183
 30
0.0
 11
4.363169236848683
 21
2.684936938772401
 31
0.0
  0
LINE
  5
261
102
{ACAD_REACTORS
330
25E
102
}
330
58
100
AcDbEntity
 67
     1
  8
0
  6
HIDDENX2
 48
0.3
100
AcDbLine
 10
6.240010927050093
 20
1.901936938772402
 30
0.0
 11
6.240010927050093
 21
1.557936938772402
 31
0.0
  0
LINE
  5
262
330
58
100
AcDbEntity
 67
     1
  8
0
  6
HIDDEN2
100
AcDbLine
 10
6.240010927050093
 20
1.628436938772402
 30
0.0
 11
6.427510927050093
 21
1.628436938772402
 31
0.0
  0
LINE
  5
263
330
58
100
AcDbEntity
 67
     1
  8
0
  6
HIDDEN2
100
AcDbLine
 10
6.052510927050093
 20
1.327744893386213
 30
0.0
 11
6.427510927050093
 21
1.327744893386213
 31
0.0
  0
LINE
  5
264
330
58
100
AcDbEntity
 67
     1
  8
0
100
AcDbLine
 10
6.052510927050093
 20
0.9349369387724033
 30
0.0
 11
6.427510927050093
 21
0.9349369387724033
 31
0.0
  0
LINE
  5
265
330
58
100
AcDbEntity
 67
     1
  8
0
  6
HIDDEN2
100
AcDbLine
 10
6.052510927050093
 20
1.084094014218702
 30
0.0
 11
6.427510927050093
 21
1.084094014218702
 31
0.0
  0
LINE
  5
266
102
{ACAD_REACTORS
330
25E
102
}
330
58
100
AcDbEntity
 67
     1
  8
0
  6
HIDDENX2
 48
0.3
100
AcDbLine
 10
6.240010927050093
 20
1.557936938772402
 30
0.0
 11
6.052510927050093
 21
1.557936938772402
 31
0.0
  0
LINE
  5
267
330
58
100
AcDbEntity
 67
     1
  8
0
  6
HIDDEN2
100
AcDbLine
 10
6.240010927050093
 20
1.831436938772402
 30
0.0
 11
6.427510927050093
 21
1.831436938772402
 31
0.0
  0
LINE
  5
268
330
58
100
AcDbEntity
 67
     1
  8
0
  6
HIDDEN2
100
AcDbLine
 10
6.052510927050093
 20
2.309936938772402
 30
0.0
 11
6.427510927050093
 21
2.309936938772402
 31
0.0
  0
LINE
  5
269
330
58
100
AcDbEntity
 67
     1
  8
0
  6
HIDDENX2
 48
0.3
100
AcDbLine
 10
6.052510927050093
 20
1.901936938772402
 30
0.0
 11
6.240010927050093
 21
1.901936938772402
 31
0.0
  0
LINE
  5
26A
330
58
100
AcDbEntity
 67
     1
  8
0
  6
HIDDENX2
 48
0.3
100
AcDbLine
 10
6.240010927050093
 20
3.001494645669133
 30
0.0
 11
6.052510927050093
 21
3.001494645669133
 31
0.0
  0
DIMENSION
  5
26B
102
{ACAD_XDICTIONARY
360
26C
102
}
102
{ACAD_REACTORS
330
26D
102
}
330
58
100
AcDbEntity
 67
     1
  8
0
 48
0.3
100
AcDbDimension
  2
*D35
 10
6.427510927050093
 20
5.740583629216079
 30
0.0
 11
7.007094260383427
 21
5.740583629216079
 31
0.0
 70
    32
 71
     5
 42
0.375
  3
Standard
100
AcDbAlignedDimension
 13
6.052510927050093
 23
5.434936938772402
 33
0.0
 14
6.427510927050093
 24
5.434936938772402
 34
0.0
100
AcDbRotatedDimension
  0
DIMENSION
  5
26E
102
{ACAD_XDICTIONARY
360
26F
102
}
102
{ACAD_REACTORS
330
270
102
}
330
58
100
AcDbEntity
 67
     1
  8
0
 48
0.3
100
AcDbDimension
  2
*D36
 10
6.052510927050093
 20
5.920583629216078
 30
0.0
 11
5.493760927050093
 21
5.920583629216078
 31
0.0
 70
    32
 71
     5
 42
0.125
  3
Standard
100
AcDbAlignedDimension
 13
6.177510927050093
 23
3.668455655183908
 33
0.0
 14
6.052510927050093
 24
3.668455655183908
 34
0.0
100
AcDbRotatedDimension
  0
DIMENSION
  5
271
102
{ACAD_XDICTIONARY
360
272
102
}
102
{ACAD_REACTORS
330
273
102
}
330
58
100
AcDbEntity
 67
     1
  8
0
 48
0.3
100
AcDbDimension
  2
*D37
 10
4.918181173462116
 20
3.668455655183909
 30
0.0
 11
5.362347840128782
 21
3.918455655183909
 31
0.0
 70
    32
 71
     5
 42
0.2599999999999998
  3
Standard
100
AcDbAlignedDimension
 13
6.052510927050093
 23
3.408455655183908
 33
0.0
 14
6.052510927050093
 24
3.668455655183908
 34
0.0
 50
90.0
100
AcDbRotatedDimension
  0
LINE
  5
274
330
58
100
AcDbEntity
 67
     1
  8
0
  6
HIDDENX2
 48
0.3
100
AcDbLine
 10
6.240010927050093
 20
3.094936938772401
 30
0.0
 11
6.427510927050093
 21
3.094936938772401
 31
0.0
  0
LINE
  5
275
330
58
100
AcDbEntity
 67
     1
  8
0
  6
HIDDENX2
 48
0.3
100
AcDbLine
 10
6.240010927050093
 20
3.274936938772401
 30
0.0
 11
6.427510927050093
 21
3.274936938772401
 31
0.0
  0
LINE
  5
276
330
58
100
AcDbEntity
 67
     1
  8
0
  6
HIDDEN2
100
AcDbLine
 10
6.052510927050093
 20
4.059936938772402
 30
0.0
 11
6.427510927050093
 21
4.059936938772402
 31
0.0
  0
LINE
  5
277
330
58
100
AcDbEntity
 67
     1
  8
0
  6
HIDDENX2
 48
0.3
100
AcDbLine
 10
6.052510927050093
 20
3.345494645669133
 30
0.0
 11
6.240010927050093
 21
3.345494645669133
 31
0.0
  0
LINE
  5
278
102
{ACAD_REACTORS
330
270
330
273
102
}
330
58
100
AcDbEntity
 67
     1
  8
0
100
AcDbLine
 10
6.052510927050093
 20
3.668455655183908
 30
0.0
 11
6.177510927050093
 21
3.668455655183908
 31
0.0
  0
LINE
  5
279
330
58
100
AcDbEntity
 67
     1
  8
0
100
AcDbLine
 10
6.177510927050093
 20
3.668455655183908
 30
0.0
 11
6.177510927050093
 21
3.408455655183908
 31
0.0
  0
LINE
  5
27A
102
{ACAD_REACTORS
330
273
102
}
330
58
100
AcDbEntity
 67
     1
  8
0
100
AcDbLine
 10
6.177510927050093
 20
3.408455655183908
 30
0.0
 11
6.052510927050093
 21
3.408455655183908
 31
0.0
  0
LINE
  5
27B
330
58
100
AcDbEntity
 67
     1
  8
0
  6
HIDDEN2
100
AcDbLine
 10
6.240010927050093
 20
4.538436938772402
 30
0.0
 11
6.427510927050093
 21
4.538436938772402
 31
0.0
  0
LINE
  5
27C
330
58
100
AcDbEntity
 67
     1
  8
0
  6
HIDDEN2
100
AcDbLine
 10
6.240010927050093
 20
4.741436938772402
 30
0.0
 11
6.427510927050093
 21
4.741436938772402
 31
0.0
  0
LINE
  5
27D
330
58
100
AcDbEntity
 67
     1
  8
0
100
AcDbLine
 10
6.052510927050093
 20
5.434936938772402
 30
0.0
 11
6.427510927050093
 21
5.434936938772402
 31
0.0
  0
LINE
  5
27E
330
58
100
AcDbEntity
 67
     1
  8
0
  6
HIDDEN2
100
AcDbLine
 10
6.052510927050093
 20
5.359936938772403
 30
0.0
 11
6.427510927050093
 21
5.359936938772403
 31
0.0
  0
LINE
  5
27F
330
58
100
AcDbEntity
 67
     1
  8
0
  6
HIDDEN2
100
AcDbLine
 10
6.052510927050093
 20
5.109936938772403
 30
0.0
 11
6.427510927050093
 21
5.109936938772403
 31
0.0
  0
LINE
  5
280
330
58
100
AcDbEntity
 67
     1
  8
0
  6
HIDDENX2
 48
0.3
100
AcDbLine
 10
6.240010927050093
 20
4.811936938772402
 30
0.0
 11
6.240010927050093
 21
4.467936938772401
 31
0.0
  0
LINE
  5
281
330
58
100
AcDbEntity
 67
     1
  8
0
  6
HIDDENX2
 48
0.3
100
AcDbLine
 10
6.240010927050093
 20
4.467936938772401
 30
0.0
 11
6.052510927050093
 21
4.467936938772401
 31
0.0
  0
LINE
  5
282
330
58
100
AcDbEntity
 67
     1
  8
0
  6
HIDDENX2
 48
0.3
100
AcDbLine
 10
6.052510927050093
 20
4.811936938772402
 30
0.0
 11
6.240010927050093
 21
4.811936938772402
 31
0.0
  0
ENDSEC
  0
SECTION
  2
OBJECTS
  0
DICTIONARY
  5
C
330
0
100
AcDbDictionary
281
     1
  3
ACAD_GROUP
350
D
  3
ACAD_LAYOUT
350
1A
  3
ACAD_MLINESTYLE
350
17
  3
ACAD_PLOTSETTINGS
350
19
  3
ACAD_PLOTSTYLENAME
350
E
  3
AcDbVariableDictionary
350
66
  0
DICTIONARY
  5
20C
330
20B
100
AcDbDictionary
280
     1
281
     1
  3
ACAD_DIMASSOC
360
20D
  0
DICTIONARY
  5
20F
330
20E
100
AcDbDictionary
280
     1
281
     1
  3
ACAD_DIMASSOC
360
210
  0
DICTIONARY
  5
212
330
211
100
AcDbDictionary
280
     1
281
     1
  3
ACAD_DIMASSOC
360
213
  0
DICTIONARY
  5
215
330
214
100
AcDbDictionary
280
     1
281
     1
  3
ACAD_DIMASSOC
360
216
  0
DICTIONARY
  5
218
330
217
100
AcDbDictionary
280
     1
281
     1
  3
ACAD_DIMASSOC
360
219
  0
DICTIONARY
  5
21E
330
21D
100
AcDbDictionary
280
     1
281
     1
  3
ACAD_DIMASSOC
360
21F
  0
DICTIONARY
  5
221
330
220
100
AcDbDictionary
280
     1
281
     1
  3
ACAD_DIMASSOC
360
222
  0
DICTIONARY
  5
224
330
223
100
AcDbDictionary
280
     1
281
     1
  3
ACAD_DIMASSOC
360
225
  0
DICTIONARY
  5
22A
330
229
100
AcDbDictionary
280
     1
281
     1
  3
ACAD_DIMASSOC
360
22B
  0
DICTIONARY
  5
23F
330
23E
100
AcDbDictionary
280
     1
281
     1
  3
ACAD_DIMASSOC
360
240
  0
DICTIONARY
  5
252
330
251
100
AcDbDictionary
280
     1
281
     1
  3
ACAD_DIMASSOC
360
253
  0
DICTIONARY
  5
255
330
254
100
AcDbDictionary
280
     1
281
     1
  3
ACAD_DIMASSOC
360
256
  0
DICTIONARY
  5
258
330
257
100
AcDbDictionary
280
     1
281
     1
  3
ACAD_DIMASSOC
360
259
  0
DICTIONARY
  5
25D
330
25C
100
AcDbDictionary
280
     1
281
     1
  3
ACAD_DIMASSOC
360
25E
  0
DICTIONARY
  5
26C
330
26B
100
AcDbDictionary
280
     1
281
     1
  3
ACAD_DIMASSOC
360
26D
  0
DICTIONARY
  5
26F
330
26E
100
AcDbDictionary
280
     1
281
     1
  3
ACAD_DIMASSOC
360
270
  0
DICTIONARY
  5
272
330
271
100
AcDbDictionary
280
     1
281
     1
  3
ACAD_DIMASSOC
360
273
  0
DICTIONARY
  5
D
102
{ACAD_REACTORS
330
C
102
}
330
C
100
AcDbDictionary
281
     1
  0
DICTIONARY
  5
1A
102
{ACAD_REACTORS
330
C
102
}
330
C
100
AcDbDictionary
281
     1
  3
Layout1
350
59
  3
Layout2
350
5E
  3
Model
350
22
  0
DICTIONARY
  5
17
102
{ACAD_REACTORS
330
C
102
}
330
C
100
AcDbDictionary
281
     1
  3
Standard
350
18
  0
DICTIONARY
  5
19
102
{ACAD_REACTORS
330
C
102
}
330
C
100
AcDbDictionary
281
     1
  0
ACDBDICTIONARYWDFLT
  5
E
102
{ACAD_REACTORS
330
C
102
}
330
C
100
AcDbDictionary
281
     1
  3
Normal
350
F
100
AcDbDictionaryWithDefault
340
F
  0
DICTIONARY
  5
66
102
{ACAD_REACTORS
330
C
102
}
330
C
100
AcDbDictionary
281
     1
  3
DIMASSOC
350
67
  3
HIDETEXT
350
6B
  0
DIMASSOC
  5
20D
102
{ACAD_REACTORS
330
20C
102
}
330
20C
100
AcDbDimAssoc
330
20B
 90
        2
 70
     0
 71
     0
  1
AcDbOsnapPointRef
 72
     3
331
239
 73
     2
 91
        0
 40
0.0
 10
3.238169236848682
 20
1.204185332358895
 30
0.0
 75
     0
  0
DIMASSOC
  5
210
102
{ACAD_REACTORS
330
20F
102
}
330
20F
100
AcDbDimAssoc
330
20E
 90
        2
 70
     0
 71
     0
  1
AcDbOsnapPointRef
 72
     3
331
24D
 73
     2
 91
        0
 40
0.0
 10
3.642575837582009
 20
4.969025053239659
 30
0.0
 75
     0
  0
DIMASSOC
  5
213
102
{ACAD_REACTORS
330
212
102
}
330
212
100
AcDbDimAssoc
330
211
 90
        2
 70
     0
 71
     0
  1
AcDbOsnapPointRef
 72
     3
331
21B
 73
     2
 91
        0
 40
0.0
 10
2.488169236848683
 20
3.184936938772402
 30
0.0
 75
     0
  0
DIMASSOC
  5
216
102
{ACAD_REACTORS
330
215
102
}
330
215
100
AcDbDimAssoc
330
214
 90
        2
 70
     0
 71
     0
  1
AcDbOsnapPointRef
 72
     3
331
241
 73
     2
 91
        0
 40
0.0
 10
2.488169236848683
 20
3.184936938772402
 30
0.0
 75
     0
  0
DIMASSOC
  5
219
102
{ACAD_REACTORS
330
218
102
}
330
218
100
AcDbDimAssoc
330
217
 90
        2
 70
     0
 71
     0
  1
AcDbOsnapPointRef
 72
     3
331
226
 73
     2
 91
        0
 40
0.0
 10
2.488169236848683
 20
3.184936938772402
 30
0.0
 75
     0
  0
DIMASSOC
  5
21F
102
{ACAD_REACTORS
330
21E
102
}
330
21E
100
AcDbDimAssoc
330
21D
 90
        3
 70
     0
 71
     0
  1
AcDbOsnapPointRef
 72
     3
331
21B
 73
     2
 91
        0
 40
5.461413124211915
 10
2.488169236848683
 20
3.184936938772402
 30
0.0
 75
     0
  1
AcDbOsnapPointRef
 72
     3
331
237
 73
     2
 91
        0
 40
0.0
 10
2.488169236848682
 20
1.729936938772402
 30
0.0
 75
     0
  0
DIMASSOC
  5
222
102
{ACAD_REACTORS
330
221
102
}
330
221
100
AcDbDimAssoc
330
220
 90
        3
 70
     0
 71
     0
  1
AcDbOsnapPointRef
 72
    13
331
242
 73
     2
 91
        0
 40
0.0
 10
1.183228862822393
 20
3.650016926457639
 30
0.0
 75
     0
  1
AcDbOsnapPointRef
 72
     1
331
242
 73
     2
 91
        0
 40
1.0
 10
1.649014737409654
 20
3.432817406077176
 30
0.0
 75
     0
  0
DIMASSOC
  5
225
102
{ACAD_REACTORS
330
224
102
}
330
224
100
AcDbDimAssoc
330
223
 90
        2
 70
     0
 71
     0
  1
AcDbOsnapPointRef
 72
     3
331
22E
 73
     2
 91
        0
 40
0.0
 10
2.488169236848685
 20
5.234936938772403
 30
0.0
 75
     0
  0
DIMASSOC
  5
22B
102
{ACAD_REACTORS
330
22A
102
}
330
22A
100
AcDbDimAssoc
330
229
 90
        3
 70
     0
 71
     0
  1
AcDbOsnapPointRef
 72
     3
331
233
 73
     2
 91
        0
 40
1.354823570144831
 10
1.738169236848682
 20
1.204185332358896
 30
0.0
 75
     0
  1
AcDbOsnapPointRef
 72
     3
331
239
 73
     2
 91
        0
 40
5.188039402636631
 10
3.238169236848682
 20
1.204185332358895
 30
0.0
 75
     0
  0
DIMASSOC
  5
240
102
{ACAD_REACTORS
330
23F
102
}
330
23F
100
AcDbDimAssoc
330
23E
 90
        2
 70
     0
 71
     0
  1
AcDbOsnapPointRef
 72
     3
331
24C
 73
     2
 91
        0
 40
0.0
 10
2.488169236848685
 20
5.234936938772403
 30
0.0
 75
     0
  0
DIMASSOC
  5
253
102
{ACAD_REACTORS
330
252
102
}
330
252
100
AcDbDimAssoc
330
251
 90
        2
 70
     0
 71
     0
  1
AcDbOsnapPointRef
 72
     3
331
20A
 73
     2
 91
        0
 40
0.0
 10
3.943169236848683
 20
3.184936938772401
 30
0.0
 75
     0
  0
DIMASSOC
  5
256
102
{ACAD_REACTORS
330
255
102
}
330
255
100
AcDbDimAssoc
330
254
 90
        2
 70
     0
 71
     0
  1
AcDbOsnapPointRef
 72
     3
331
21A
 73
     2
 91
        0
 40
0.0
 10
3.943169236848683
 20
3.184936938772401
 30
0.0
 75
     0
  0
DIMASSOC
  5
259
102
{ACAD_REACTORS
330
258
102
}
330
258
100
AcDbDimAssoc
330
257
 90
        3
 70
     0
 71
     0
  1
AcDbOsnapPointRef
 72
    13
331
25A
 73
     2
 91
        0
 40
0.0
 10
6.427510927050093
 20
5.434936938772402
 30
0.0
 75
     0
  1
AcDbOsnapPointRef
 72
     1
331
25A
 73
     2
 91
        0
 40
1.0
 10
6.427510927050093
 20
0.9349369387724033
 30
0.0
 75
     0
  0
DIMASSOC
  5
25E
102
{ACAD_REACTORS
330
25D
102
}
330
25D
100
AcDbDimAssoc
330
25C
 90
        3
 70
     0
 71
     0
  1
AcDbOsnapPointRef
 72
     1
331
266
 73
     2
 91
        0
 40
1.0
 10
6.052510927050093
 20
1.557936938772402
 30
0.0
 75
     0
  1
AcDbOsnapPointRef
 72
     1
331
261
 73
     2
 91
        0
 40
1.0
 10
6.240010927050093
 20
1.557936938772402
 30
0.0
 75
     0
  0
DIMASSOC
  5
26D
102
{ACAD_REACTORS
330
26C
102
}
330
26C
100
AcDbDimAssoc
330
26B
 90
        3
 70
     0
 71
     0
  1
AcDbOsnapPointRef
 72
     1
331
25B
 73
     2
 91
        0
 40
1.0
 10
6.052510927050093
 20
5.434936938772402
 30
0.0
 75
     0
  1
AcDbOsnapPointRef
 72
    13
331
25A
 73
     2
 91
        0
 40
0.0
 10
6.427510927050093
 20
5.434936938772402
 30
0.0
 75
     0
  0
DIMASSOC
  5
270
102
{ACAD_REACTORS
330
26F
102
}
330
26F
100
AcDbDimAssoc
330
26E
 90
        3
 70
     0
 71
     0
  1
AcDbOsnapPointRef
 72
     1
331
278
 73
     2
 91
        0
 40
1.0
 10
6.177510927050093
 20
3.668455655183908
 30
0.0
 75
     0
  1
AcDbOsnapPointRef
 72
    13
331
278
 73
     2
 91
        0
 40
0.0
 10
6.052510927050093
 20
3.668455655183908
 30
0.0
 75
     0
  0
DIMASSOC
  5
273
102
{ACAD_REACTORS
330
272
102
}
330
272
100
AcDbDimAssoc
330
271
 90
        3
 70
     0
 71
     0
  1
AcDbOsnapPointRef
 72
     1
331
27A
 73
     2
 91
        0
 40
1.0
 10
6.052510927050093
 20
3.408455655183908
 30
0.0
 75
     0
  1
AcDbOsnapPointRef
 72
    13
331
278
 73
     2
 91
        0
 40
0.0
 10
6.052510927050093
 20
3.668455655183908
 30
0.0
 75
     0
  0
LAYOUT
  5
59
102
{ACAD_REACTORS
330
1A
102
}
330
1A
100
AcDbPlotSettings
  1

  2
none_device
  4
Letter_(8.50_x_11.00_Inches)
  6

 40
6.349999904632568
 41
6.349999904632568
 42
6.350006103515625
 43
6.350006103515625
 44
215.8999938964843
 45
279.3999938964843
 46
38.3032
 47
38.15079999999999
 48
0.0
 49
0.0
140
0.0
141
0.0
142
1.0
143
1.0
 70
   688
 72
     0
 73
     1
 74
     5
  7

 75
    16
147
1.0
148
0.0
149
0.0
100
AcDbLayout
  1
Layout1
 70
     1
 71
     1
 10
-1.75200024029589
 20
-1.757999996245376
 11
9.247999519408217
 21
6.741999763458731
 12
0.0
 22
0.0
 32
0.0
 14
-1.439262267973589
 24
-1.41285528304607
 34
0.0
 15
8.966538218833356
 25
6.396855050259421
 35
0.0
146
0.0
 13
0.0
 23
0.0
 33
0.0
 16
1.0
 26
0.0
 36
0.0
 17
0.0
 27
1.0
 37
0.0
 76
     0
330
58
331
77
  0
LAYOUT
  5
5E
102
{ACAD_REACTORS
330
1A
102
}
330
1A
100
AcDbPlotSettings
  1

  2
None
  4

  6

 40
0.0
 41
0.0
 42
0.0
 43
0.0
 44
0.0
 45
0.0
 46
0.0
 47
0.0
 48
0.0
 49
0.0
140
0.0
141
0.0
142
1.0
143
1.0
 70
   688
 72
     0
 73
     0
 74
     5
  7

 75
    16
147
1.0
148
0.0
149
0.0
100
AcDbLayout
  1
Layout2
 70
     1
 71
     2
 10
0.0
 20
0.0
 11
12.0
 21
9.0
 12
0.0
 22
0.0
 32
0.0
 14
0.0
 24
0.0
 34
0.0
 15
0.0
 25
0.0
 35
0.0
146
0.0
 13
0.0
 23
0.0
 33
0.0
 16
1.0
 26
0.0
 36
0.0
 17
0.0
 27
1.0
 37
0.0
 76
     0
330
5D
  0
LAYOUT
  5
22
102
{ACAD_REACTORS
330
1A
102
}
330
1A
100
AcDbPlotSettings
  1

  2
none_device
  4
ANSI_A_(8.50_x_11.00_Inches)
  6

 40
6.349999904632568
 41
19.04999923706054
 42
6.350006103515625
 43
19.04998779296875
 44
215.8999938964843
 45
279.3999938964843
 46
0.0
 47
0.0
 48
0.0
 49
0.0
140
0.0
141
0.0
142
1.0
143
2.584895464708373
 70
 11952
 72
     0
 73
     1
 74
     0
  7

 75
     0
147
0.3868628397755418
148
0.0
149
0.0
100
AcDbLayout
  1
Model
 70
     1
 71
     0
 10
0.0
 20
0.0
 11
12.0
 21
9.0
 12
0.0
 22
0.0
 32
0.0
 14
0.0
 24
0.0
 34
0.0
 15
0.0
 25
0.0
 35
0.0
146
0.0
 13
0.0
 23
0.0
 33
0.0
 16
1.0
 26
0.0
 36
0.0
 17
0.0
 27
1.0
 37
0.0
 76
     0
330
1F
  0
MLINESTYLE
  5
18
102
{ACAD_REACTORS
330
17
102
}
330
17
100
AcDbMlineStyle
  2
STANDARD
 70
     0
  3

 62
   256
 51
90.0
 52
90.0
 71
     2
 49
0.5
 62
   256
  6
BYLAYER
 49
-0.5
 62
   256
  6
BYLAYER
  0
ACDBPLACEHOLDER
  5
F
102
{ACAD_REACTORS
330
E
102
}
330
E
  0
DICTIONARYVAR
  5
67
102
{ACAD_REACTORS
330
66
102
}
330
66
100
DictionaryVariables
280
     0
  1
2
  0
DICTIONARYVAR
  5
6B
102
{ACAD_REACTORS
330
66
102
}
330
66
100
DictionaryVariables
280
     0
  1
1
  0
ENDSEC
  0
EOF
