  0
SECTION
  2
HEADER
  9
$ACADVER
  1
AC1015
  9
$ACADMAINTVER
 70
    13
  9
$DWGCODEPAGE
  3
ANSI_1252
  9
$INSBASE
 10
0.0
 20
0.0
 30
0.0
  9
$EXTMIN
 10
1.000000000000000E+20
 20
1.000000000000000E+20
 30
1.000000000000000E+20
  9
$EXTMAX
 10
-1.000000000000000E+20
 20
-1.000000000000000E+20
 30
-1.000000000000000E+20
  9
$LIMMIN
 10
0.0
 20
0.0
  9
$LIMMAX
 10
12.0
 20
9.0
  9
$ORTHOMODE
 70
     0
  9
$REGENMODE
 70
     1
  9
$FILLMODE
 70
     1
  9
$QTEXTMODE
 70
     0
  9
$MIRRTEXT
 70
     1
  9
$LTSCALE
 40
0.3
  9
$ATTMODE
 70
     1
  9
$TEXTSIZE
 40
0.2
  9
$TRACEWID
 40
0.05
  9
$TEXTSTYLE
  7
Standard
  9
$CLAYER
  8
0
  9
$CELTYPE
  6
ByLayer
  9
$CECOLOR
 62
   256
  9
$CELTSCALE
 40
0.3
  9
$DISPSILH
 70
     0
  9
$DIMSCALE
 40
1.0
  9
$DIMASZ
 40
0.125
  9
$DIMEXO
 40
0.0625
  9
$DIMDLI
 40
0.38
  9
$DIMRND
 40
0.0
  9
$DIMDLE
 40
0.0
  9
$DIMEXE
 40
0.18
  9
$DIMTP
 40
0.0
  9
$DIMTM
 40
0.0
  9
$DIMTXT
 40
0.125
  9
$DIMCEN
 40
0.09
  9
$DIMTSZ
 40
0.0
  9
$DIMTOL
 70
     0
  9
$DIMLIM
 70
     0
  9
$DIMTIH
 70
     1
  9
$DIMTOH
 70
     1
  9
$DIMSE1
 70
     0
  9
$DIMSE2
 70
     0
  9
$DIMTAD
 70
     0
  9
$DIMZIN
 70
     0
  9
$DIMBLK
  1

  9
$DIMASO
 70
     1
  9
$DIMSHO
 70
     1
  9
$DIMPOST
  1

  9
$DIMAPOST
  1

  9
$DIMALT
 70
     0
  9
$DIMALTD
 70
     2
  9
$DIMALTF
 40
25.4
  9
$DIMLFAC
 40
1.0
  9
$DIMTOFL
 70
     0
  9
$DIMTVP
 40
0.0
  9
$DIMTIX
 70
     0
  9
$DIMSOXD
 70
     0
  9
$DIMSAH
 70
     0
  9
$DIMBLK1
  1

  9
$DIMBLK2
  1

  9
$DIMSTYLE
  2
Standard
  9
$DIMCLRD
 70
     0
  9
$DIMCLRE
 70
     0
  9
$DIMCLRT
 70
     0
  9
$DIMTFAC
 40
1.0
  9
$DIMGAP
 40
0.09
  9
$DIMJUST
 70
     0
  9
$DIMSD1
 70
     0
  9
$DIMSD2
 70
     0
  9
$DIMTOLJ
 70
     1
  9
$DIMTZIN
 70
     0
  9
$DIMALTZ
 70
     0
  9
$DIMALTTZ
 70
     0
  9
$DIMUPT
 70
     0
  9
$DIMDEC
 70
     3
  9
$DIMTDEC
 70
     3
  9
$DIMALTU
 70
     2
  9
$DIMALTTD
 70
     2
  9
$DIMTXSTY
  7
Standard
  9
$DIMAUNIT
 70
     0
  9
$DIMADEC
 70
     0
  9
$DIMALTRND
 40
0.0
  9
$DIMAZIN
 70
     0
  9
$DIMDSEP
 70
    46
  9
$DIMATFIT
 70
     3
  9
$DIMFRAC
 70
     0
  9
$DIMLDRBLK
  1

  9
$DIMLUNIT
 70
     2
  9
$DIMLWD
 70
    -2
  9
$DIMLWE
 70
    -2
  9
$DIMTMOVE
 70
     0
  9
$LUNITS
 70
     2
  9
$LUPREC
 70
     4
  9
$SKETCHINC
 40
0.1
  9
$FILLETRAD
 40
0.1875
  9
$AUNITS
 70
     0
  9
$AUPREC
 70
     0
  9
$MENU
  1
.
  9
$ELEVATION
 40
0.0
  9
$PELEVATION
 40
0.0
  9
$THICKNESS
 40
0.0
  9
$LIMCHECK
 70
     0
  9
$CHAMFERA
 40
0.5
  9
$CHAMFERB
 40
0.5
  9
$CHAMFERC
 40
1.0
  9
$CHAMFERD
 40
0.0
  9
$SKPOLY
 70
     0
  9
$TDCREATE
 40
2454412.621520173
  9
$TDUCREATE
 40
2454412.788186840
  9
$TDUPDATE
 40
2455431.801247558
  9
$TDUUPDATE
 40
2455431.967914224
  9
$TDINDWG
 40
0.0312907870
  9
$TDUSRTIMER
 40
0.0312907870
  9
$USRTIMER
 70
     1
  9
$ANGBASE
 50
0.0
  9
$ANGDIR
 70
     0
  9
$PDMODE
 70
     0
  9
$PDSIZE
 40
0.0
  9
$PLINEWID
 40
0.0
  9
$SPLFRAME
 70
     0
  9
$SPLINETYPE
 70
     6
  9
$SPLINESEGS
 70
     8
  9
$HANDSEED
  5
365
  9
$SURFTAB1
 70
     6
  9
$SURFTAB2
 70
     6
  9
$SURFTYPE
 70
     6
  9
$SURFU
 70
     6
  9
$SURFV
 70
     6
  9
$UCSBASE
  2

  9
$UCSNAME
  2

  9
$UCSORG
 10
0.0
 20
0.0
 30
0.0
  9
$UCSXDIR
 10
1.0
 20
0.0
 30
0.0
  9
$UCSYDIR
 10
0.0
 20
1.0
 30
0.0
  9
$UCSORTHOREF
  2

  9
$UCSORTHOVIEW
 70
     0
  9
$UCSORGTOP
 10
0.0
 20
0.0
 30
0.0
  9
$UCSORGBOTTOM
 10
0.0
 20
0.0
 30
0.0
  9
$UCSORGLEFT
 10
0.0
 20
0.0
 30
0.0
  9
$UCSORGRIGHT
 10
0.0
 20
0.0
 30
0.0
  9
$UCSORGFRONT
 10
0.0
 20
0.0
 30
0.0
  9
$UCSORGBACK
 10
0.0
 20
0.0
 30
0.0
  9
$PUCSBASE
  2

  9
$PUCSNAME
  2

  9
$PUCSORG
 10
0.0
 20
0.0
 30
0.0
  9
$PUCSXDIR
 10
1.0
 20
0.0
 30
0.0
  9
$PUCSYDIR
 10
0.0
 20
1.0
 30
0.0
  9
$PUCSORTHOREF
  2

  9
$PUCSORTHOVIEW
 70
     0
  9
$PUCSORGTOP
 10
0.0
 20
0.0
 30
0.0
  9
$PUCSORGBOTTOM
 10
0.0
 20
0.0
 30
0.0
  9
$PUCSORGLEFT
 10
0.0
 20
0.0
 30
0.0
  9
$PUCSORGRIGHT
 10
0.0
 20
0.0
 30
0.0
  9
$PUCSORGFRONT
 10
0.0
 20
0.0
 30
0.0
  9
$PUCSORGBACK
 10
0.0
 20
0.0
 30
0.0
  9
$USERI1
 70
     0
  9
$USERI2
 70
     0
  9
$USERI3
 70
     0
  9
$USERI4
 70
     0
  9
$USERI5
 70
     0
  9
$USERR1
 40
0.0
  9
$USERR2
 40
0.0
  9
$USERR3
 40
0.0
  9
$USERR4
 40
0.0
  9
$USERR5
 40
0.0
  9
$WORLDVIEW
 70
     1
  9
$SHADEDGE
 70
     3
  9
$SHADEDIF
 70
    70
  9
$TILEMODE
 70
     0
  9
$MAXACTVP
 70
    64
  9
$PINSBASE
 10
0.0
 20
0.0
 30
0.0
  9
$PLIMCHECK
 70
     0
  9
$PEXTMIN
 10
-1.439262267973589
 20
-1.45797533402469
 30
0.0
  9
$PEXTMAX
 10
8.966538218833356
 20
6.396855050259421
 30
0.0
  9
$PLIMMIN
 10
-1.75200024029589
 20
-1.757999996245376
  9
$PLIMMAX
 10
9.247999519408217
 20
6.741999763458731
  9
$UNITMODE
 70
     0
  9
$VISRETAIN
 70
     1
  9
$PLINEGEN
 70
     0
  9
$PSLTSCALE
 70
     1
  9
$TREEDEPTH
 70
  3020
  9
$CMLSTYLE
  2
Standard
  9
$CMLJUST
 70
     0
  9
$CMLSCALE
 40
1.0
  9
$PROXYGRAPHICS
 70
     1
  9
$MEASUREMENT
 70
     0
  9
$CELWEIGHT
370
    -1
  9
$ENDCAPS
280
     0
  9
$JOINSTYLE
280
     0
  9
$LWDISPLAY
290
     0
  9
$INSUNITS
 70
     1
  9
$HYPERLINKBASE
  1

  9
$STYLESHEET
  1

  9
$XEDIT
290
     1
  9
$CEPSNTYPE
380
     0
  9
$PSTYLEMODE
290
     1
  9
$FINGERPRINTGUID
  2
{FDEAD576-A652-11D2-9A35-0060089B3A3F}
  9
$VERSIONGUID
  2
{5DEA0663-5934-4AE1-822E-83967335F62F}
  9
$EXTNAMES
290
     1
  9
$PSVPSCALE
 40
0.0
  9
$OLESTARTUP
290
     0
  0
ENDSEC
  0
SECTION
  2
CLASSES
  0
CLASS
  1
ACDBDICTIONARYWDFLT
  2
AcDbDictionaryWithDefault
  3
AutoCAD 2000
 90
        0
280
     0
281
     0
  0
CLASS
  1
ACDBPLACEHOLDER
  2
AcDbPlaceHolder
  3
AutoCAD 2000
 90
        0
280
     0
281
     0
  0
CLASS
  1
LAYOUT
  2
AcDbLayout
  3
AutoCAD 2000
 90
        0
280
     0
281
     0
  0
CLASS
  1
DICTIONARYVAR
  2
AcDbDictionaryVar
  3
AutoCAD 2000
 90
        0
280
     0
281
     0
  0
CLASS
  1
DIMASSOC
  2
AcDbDimAssoc
  3
"AcDbDimAssoc|Product Desc:     AcDim ARX App For Dimension|Company:          Autodesk, Inc.|WEB Address:      www.autodesk.com"
 90
        0
280
     0
281
     0
  0
ENDSEC
  0
SECTION
  2
TABLES
  0
TABLE
  2
VPORT
  5
8
330
0
100
AcDbSymbolTable
 70
     1
  0
VPORT
  5
74
330
8
100
AcDbSymbolTableRecord
100
AcDbViewportTableRecord
  2
*Active
 70
     0
 10
0.0
 20
0.0
 11
1.0
 21
1.0
 12
20.48748698095427
 22
9.784138269231398
 13
0.0
 23
0.0
 14
0.5
 24
0.5
 15
0.5
 25
0.5
 16
0.0
 26
0.0
 36
1.0
 17
0.0
 27
0.0
 37
0.0
 40
19.56827653846279
 41
2.093949044585987
 42
50.0
 43
0.0
 44
0.0
 50
0.0
 51
0.0
 71
     0
 72
   100
 73
     1
 74
     3
 75
     0
 76
     0
 77
     0
 78
     0
281
     0
 65
     1
110
0.0
120
0.0
130
0.0
111
1.0
121
0.0
131
0.0
112
0.0
122
1.0
132
0.0
 79
     0
146
0.0
  0
ENDTAB
  0
TABLE
  2
LTYPE
  5
5
330
0
100
AcDbSymbolTable
 70
     3
  0
LTYPE
  5
14
330
5
100
AcDbSymbolTableRecord
100
AcDbLinetypeTableRecord
  2
ByBlock
 70
     0
  3

 72
    65
 73
     0
 40
0.0
  0
LTYPE
  5
15
330
5
100
AcDbSymbolTableRecord
100
AcDbLinetypeTableRecord
  2
ByLayer
 70
     0
  3

 72
    65
 73
     0
 40
0.0
  0
LTYPE
  5
16
330
5
100
AcDbSymbolTableRecord
100
AcDbLinetypeTableRecord
  2
Continuous
 70
     0
  3
Solid line
 72
    65
 73
     0
 40
0.0
  0
LTYPE
  5
92
330
5
100
AcDbSymbolTableRecord
100
AcDbLinetypeTableRecord
  2
HIDDENX2
 70
     0
  3
Hidden (2x) ____ ____ ____ ____ ____ ____ ____
 72
    65
 73
     2
 40
0.75
 49
0.5
 74
     0
 49
-0.25
 74
     0
  0
LTYPE
  5
93
330
5
100
AcDbSymbolTableRecord
100
AcDbLinetypeTableRecord
  2
threads
 70
     0
  3
Zig zag /\/\/\/\/\/\/\/\/\/\/\/\/\/\/\/\/\/\/\/
 72
    65
 73
     4
 40
0.8001000000000001
 49
0.0001
 74
     0
 49
-0.2
 74
     4
 75
   131
340
91
 46
0.2
 50
0.0
 44
-0.2
 45
0.0
 49
-0.4
 74
     4
 75
   131
340
91
 46
0.2
 50
180.0
 44
0.2
 45
0.0
 49
-0.2
 74
     0
  0
ENDTAB
  0
TABLE
  2
LAYER
  5
2
330
0
100
AcDbSymbolTable
 70
     2
  0
LAYER
  5
10
330
2
100
AcDbSymbolTableRecord
100
AcDbLayerTableRecord
  2
0
 70
     0
 62
     7
  6
Continuous
370
    -3
390
F
  0
LAYER
  5
132
330
2
100
AcDbSymbolTableRecord
100
AcDbLayerTableRecord
  2
Defpoints
 70
     0
 62
     7
  6
Continuous
290
     0
370
    -3
390
F
  0
ENDTAB
  0
TABLE
  2
STYLE
  5
3
330
0
100
AcDbSymbolTable
 70
     2
  0
STYLE
  5
11
330
3
100
AcDbSymbolTableRecord
100
AcDbTextStyleTableRecord
  2
Standard
 70
     0
 40
0.0
 41
1.0
 50
0.0
 71
     0
 42
0.2
  3
txt
  4

  0
STYLE
  5
91
330
3
100
AcDbSymbolTableRecord
100
AcDbTextStyleTableRecord
  2

 70
     1
 40
0.0
 41
1.0
 50
0.0
 71
     0
 42
0.2
  3
ltypeshp.shx
  4

  0
ENDTAB
  0
TABLE
  2
VIEW
  5
6
330
0
100
AcDbSymbolTable
 70
     0
  0
ENDTAB
  0
TABLE
  2
UCS
  5
7
330
0
100
AcDbSymbolTable
 70
     0
  0
ENDTAB
  0
TABLE
  2
APPID
  5
9
330
0
100
AcDbSymbolTable
 70
     1
  0
APPID
  5
12
330
9
100
AcDbSymbolTableRecord
100
AcDbRegAppTableRecord
  2
ACAD
 70
     0
  0
ENDTAB
  0
TABLE
  2
DIMSTYLE
  5
A
330
0
100
AcDbSymbolTable
 70
     1
100
AcDbDimStyleTable
 71
     1
340
27
  0
DIMSTYLE
105
27
102
{ACAD_REACTORS
330
131
330
14C
330
167
330
181
330
19B
330
1B5
330
1D9
330
1F5
330
219
330
233
330
24D
330
25B
330
275
330
28B
330
2BD
330
2F1
330
30B
330
325
330
341
102
}
330
A
100
AcDbSymbolTableRecord
100
AcDbDimStyleTableRecord
  2
Standard
 70
     0
 41
0.125
140
0.125
271
     3
272
     3
340
11
  0
ENDTAB
  0
TABLE
  2
BLOCK_RECORD
  5
1
330
0
100
AcDbSymbolTable
 70
    23
  0
BLOCK_RECORD
  5
1F
330
1
100
AcDbSymbolTableRecord
100
AcDbBlockTableRecord
  2
*Model_Space
340
22
  0
BLOCK_RECORD
  5
58
330
1
100
AcDbSymbolTableRecord
100
AcDbBlockTableRecord
  2
*Paper_Space
340
59
  0
BLOCK_RECORD
  5
5D
330
1
100
AcDbSymbolTableRecord
100
AcDbBlockTableRecord
  2
*Paper_Space0
340
5E
  0
BLOCK_RECORD
  5
133
330
1
100
AcDbSymbolTableRecord
100
AcDbBlockTableRecord
  2
*D2
340
0
  0
BLOCK_RECORD
  5
14D
330
1
100
AcDbSymbolTableRecord
100
AcDbBlockTableRecord
  2
*D3
340
0
  0
BLOCK_RECORD
  5
168
330
1
100
AcDbSymbolTableRecord
100
AcDbBlockTableRecord
  2
*D4
340
0
  0
BLOCK_RECORD
  5
182
330
1
100
AcDbSymbolTableRecord
100
AcDbBlockTableRecord
  2
*D5
340
0
  0
BLOCK_RECORD
  5
19C
330
1
100
AcDbSymbolTableRecord
100
AcDbBlockTableRecord
  2
*D6
340
0
  0
BLOCK_RECORD
  5
1B6
330
1
100
AcDbSymbolTableRecord
100
AcDbBlockTableRecord
  2
*D7
340
0
  0
BLOCK_RECORD
  5
1DA
330
1
100
AcDbSymbolTableRecord
100
AcDbBlockTableRecord
  2
*D8
340
0
  0
BLOCK_RECORD
  5
1F6
330
1
100
AcDbSymbolTableRecord
100
AcDbBlockTableRecord
  2
*D9
340
0
  0
BLOCK_RECORD
  5
21A
330
1
100
AcDbSymbolTableRecord
100
AcDbBlockTableRecord
  2
*D10
340
0
  0
BLOCK_RECORD
  5
234
330
1
100
AcDbSymbolTableRecord
100
AcDbBlockTableRecord
  2
*D11
340
0
  0
BLOCK_RECORD
  5
24E
330
1
100
AcDbSymbolTableRecord
100
AcDbBlockTableRecord
  2
*D12
340
0
  0
BLOCK_RECORD
  5
25C
330
1
100
AcDbSymbolTableRecord
100
AcDbBlockTableRecord
  2
*D13
340
0
  0
BLOCK_RECORD
  5
276
330
1
100
AcDbSymbolTableRecord
100
AcDbBlockTableRecord
  2
*D14
340
0
  0
BLOCK_RECORD
  5
28C
330
1
100
AcDbSymbolTableRecord
100
AcDbBlockTableRecord
  2
*D15
340
0
  0
BLOCK_RECORD
  5
2A2
330
1
100
AcDbSymbolTableRecord
100
AcDbBlockTableRecord
  2
*D16
340
0
  0
BLOCK_RECORD
  5
2BE
330
1
100
AcDbSymbolTableRecord
100
AcDbBlockTableRecord
  2
*D17
340
0
  0
BLOCK_RECORD
  5
2D8
330
1
100
AcDbSymbolTableRecord
100
AcDbBlockTableRecord
  2
*D18
340
0
  0
BLOCK_RECORD
  5
2F2
330
1
100
AcDbSymbolTableRecord
100
AcDbBlockTableRecord
  2
*D19
340
0
  0
BLOCK_RECORD
  5
30C
330
1
100
AcDbSymbolTableRecord
100
AcDbBlockTableRecord
  2
*D20
340
0
  0
BLOCK_RECORD
  5
326
330
1
100
AcDbSymbolTableRecord
100
AcDbBlockTableRecord
  2
*D21
340
0
  0
BLOCK_RECORD
  5
342
330
1
100
AcDbSymbolTableRecord
100
AcDbBlockTableRecord
  2
*D22
340
0
  0
ENDTAB
  0
ENDSEC
  0
SECTION
  2
BLOCKS
  0
BLOCK
  5
20
330
1F
100
AcDbEntity
  8
0
100
AcDbBlockBegin
  2
*Model_Space
 70
     0
 10
0.0
 20
0.0
 30
0.0
  3
*Model_Space
  1

  0
ENDBLK
  5
21
330
1F
100
AcDbEntity
  8
0
100
AcDbBlockEnd
  0
BLOCK
  5
5A
330
58
100
AcDbEntity
 67
     1
  8
0
100
AcDbBlockBegin
  2
*Paper_Space
 70
     0
 10
0.0
 20
0.0
 30
0.0
  3
*Paper_Space
  1

  0
ENDBLK
  5
5B
330
58
100
AcDbEntity
 67
     1
  8
0
100
AcDbBlockEnd
  0
BLOCK
  5
5F
330
5D
100
AcDbEntity
  8
0
100
AcDbBlockBegin
  2
*Paper_Space0
 70
     0
 10
0.0
 20
0.0
 30
0.0
  3
*Paper_Space0
  1

  0
ENDBLK
  5
60
330
5D
100
AcDbEntity
  8
0
100
AcDbBlockEnd
  0
BLOCK
  5
13E
330
133
100
AcDbEntity
  8
0
 48
0.3
100
AcDbBlockBegin
  2
*D2
 70
     1
 10
0.0
 20
0.0
 30
0.0
  3
*D2
  1

  0
LINE
  5
141
330
133
100
AcDbEntity
  8
0
 62
     0
 48
0.3
370
    -2
100
AcDbLine
 10
1.202514342246025
 20
5.378038516804217
 30
0.0
 11
-1.055822809689537
 21
5.378038516804217
 31
0.0
  0
LINE
  5
142
330
133
100
AcDbEntity
  8
0
 62
     0
 48
0.3
370
    -2
100
AcDbLine
 10
1.202514342246024
 20
0.8780385168042178
 30
0.0
 11
-1.055822809689538
 21
0.8780385168042183
 31
0.0
  0
LINE
  5
143
330
133
100
AcDbEntity
  8
0
 62
     0
 48
0.3
370
    -2
100
AcDbLine
 10
-0.8758228096895374
 20
5.253038516804217
 30
0.0
 11
-0.8758228096895377
 21
3.280538516804217
 31
0.0
  0
LINE
  5
144
330
133
100
AcDbEntity
  8
0
 62
     0
 48
0.3
370
    -2
100
AcDbLine
 10
-0.8758228096895383
 20
1.003038516804218
 30
0.0
 11
-0.8758228096895379
 21
2.975538516804217
 31
0.0
  0
SOLID
  5
145
330
133
100
AcDbEntity
  8
0
 62
     0
 48
0.3
100
AcDbTrace
 10
-0.8966561430228708
 20
5.253038516804217
 30
0.0
 11
-0.854989476356204
 21
5.253038516804217
 31
0.0
 12
-0.8758228096895374
 22
5.378038516804217
 32
0.0
 13
-0.8758228096895374
 23
5.378038516804217
 33
0.0
  0
SOLID
  5
146
330
133
100
AcDbEntity
  8
0
 62
     0
 48
0.3
100
AcDbTrace
 10
-0.8966561430228717
 20
1.003038516804218
 30
0.0
 11
-0.8549894763562051
 21
1.003038516804218
 31
0.0
 12
-0.8758228096895383
 22
0.8780385168042183
 32
0.0
 13
-0.8758228096895383
 23
0.8780385168042183
 33
0.0
  0
MTEXT
  5
147
330
133
100
AcDbEntity
  8
0
 62
     0
 48
0.3
100
AcDbMText
 10
-0.8758228096895383
 20
3.128038516804217
 30
0.0
 40
0.125
 41
0.0
 71
     5
 72
     1
  1
\A1;4.500
 73
     1
 44
1.0
  0
POINT
  5
148
330
133
100
AcDbEntity
  8
Defpoints
 62
     0
 48
0.3
100
AcDbPoint
 10
1.265014342246025
 20
5.378038516804217
 30
0.0
  0
POINT
  5
149
330
133
100
AcDbEntity
  8
Defpoints
 62
     0
 48
0.3
100
AcDbPoint
 10
1.265014342246024
 20
0.8780385168042176
 30
0.0
  0
POINT
  5
14A
330
133
100
AcDbEntity
  8
Defpoints
 62
     0
 48
0.3
100
AcDbPoint
 10
-0.8758228096895383
 20
0.8780385168042183
 30
0.0
  0
ENDBLK
  5
13F
330
133
100
AcDbEntity
  8
0
 48
0.3
100
AcDbBlockEnd
  0
BLOCK
  5
158
330
14D
100
AcDbEntity
  8
0
 48
0.3
100
AcDbBlockBegin
  2
*D3
 70
     1
 10
0.0
 20
0.0
 30
0.0
  3
*D3
  1

  0
LINE
  5
15B
330
14D
100
AcDbEntity
  8
0
 62
     0
 48
0.3
370
    -2
100
AcDbLine
 10
0.5150143422460253
 20
2.315538516804216
 30
0.0
 11
0.5150143422460251
 21
-0.3559785368896624
 31
0.0
  0
LINE
  5
15C
330
14D
100
AcDbEntity
  8
0
 62
     0
 48
0.3
370
    -2
100
AcDbLine
 10
4.390014342246025
 20
2.315538516804215
 30
0.0
 11
4.390014342246025
 21
-0.3559785368896624
 31
0.0
  0
LINE
  5
15D
330
14D
100
AcDbEntity
  8
0
 62
     0
 48
0.3
370
    -2
100
AcDbLine
 10
0.6400143422460252
 20
-0.1759785368896622
 30
0.0
 11
2.112514342246025
 21
-0.1759785368896622
 31
0.0
  0
LINE
  5
15E
330
14D
100
AcDbEntity
  8
0
 62
     0
 48
0.3
370
    -2
100
AcDbLine
 10
4.265014342246025
 20
-0.1759785368896622
 30
0.0
 11
2.792514342246025
 21
-0.1759785368896622
 31
0.0
  0
SOLID
  5
15F
330
14D
100
AcDbEntity
  8
0
 62
     0
 48
0.3
100
AcDbTrace
 10
0.6400143422460252
 20
-0.1551452035563289
 30
0.0
 11
0.6400143422460252
 21
-0.1968118702229956
 31
0.0
 12
0.5150143422460252
 22
-0.1759785368896622
 32
0.0
 13
0.5150143422460252
 23
-0.1759785368896622
 33
0.0
  0
SOLID
  5
160
330
14D
100
AcDbEntity
  8
0
 62
     0
 48
0.3
100
AcDbTrace
 10
4.265014342246025
 20
-0.1551452035563289
 30
0.0
 11
4.265014342246025
 21
-0.1968118702229956
 31
0.0
 12
4.390014342246025
 22
-0.1759785368896622
 32
0.0
 13
4.390014342246025
 23
-0.1759785368896622
 33
0.0
  0
MTEXT
  5
161
330
14D
100
AcDbEntity
  8
0
 62
     0
 48
0.3
100
AcDbMText
 10
2.452514342246025
 20
-0.1759785368896622
 30
0.0
 40
0.125
 41
0.0
 71
     5
 72
     1
  1
\A1;3.875
 73
     1
 44
1.0
  0
POINT
  5
162
330
14D
100
AcDbEntity
  8
Defpoints
 62
     0
 48
0.3
100
AcDbPoint
 10
0.5150143422460253
 20
2.378038516804216
 30
0.0
  0
POINT
  5
163
330
14D
100
AcDbEntity
  8
Defpoints
 62
     0
 48
0.3
100
AcDbPoint
 10
4.390014342246025
 20
2.378038516804215
 30
0.0
  0
POINT
  5
164
330
14D
100
AcDbEntity
  8
Defpoints
 62
     0
 48
0.3
100
AcDbPoint
 10
4.390014342246025
 20
-0.1759785368896622
 30
0.0
  0
ENDBLK
  5
159
330
14D
100
AcDbEntity
  8
0
 48
0.3
100
AcDbBlockEnd
  0
BLOCK
  5
173
330
168
100
AcDbEntity
  8
0
 48
0.3
100
AcDbBlockBegin
  2
*D4
 70
     1
 10
0.0
 20
0.0
 30
0.0
  3
*D4
  1

  0
LINE
  5
176
330
168
100
AcDbEntity
  8
0
 62
     0
 48
0.3
370
    -2
100
AcDbLine
 10
2.452514342246025
 20
3.066015310282173
 30
0.0
 11
2.452514342246025
 21
0.3323639487056158
 31
0.0
  0
LINE
  5
177
330
168
100
AcDbEntity
  8
0
 62
     0
 48
0.3
370
    -2
100
AcDbLine
 10
0.9975143422460259
 20
3.066015310282173
 30
0.0
 11
0.9975143422460257
 21
0.3323639487056158
 31
0.0
  0
LINE
  5
178
330
168
100
AcDbEntity
  8
0
 62
     0
 48
0.3
370
    -2
100
AcDbLine
 10
2.327514342246025
 20
0.512363948705616
 30
0.0
 11
2.044181008912692
 21
0.512363948705616
 31
0.0
  0
LINE
  5
179
330
168
100
AcDbEntity
  8
0
 62
     0
 48
0.3
370
    -2
100
AcDbLine
 10
1.122514342246025
 20
0.512363948705616
 30
0.0
 11
1.405847675579359
 21
0.512363948705616
 31
0.0
  0
SOLID
  5
17A
330
168
100
AcDbEntity
  8
0
 62
     0
 48
0.3
100
AcDbTrace
 10
2.327514342246025
 20
0.5331972820389494
 30
0.0
 11
2.327514342246025
 21
0.4915306153722827
 31
0.0
 12
2.452514342246025
 22
0.512363948705616
 32
0.0
 13
2.452514342246025
 23
0.512363948705616
 33
0.0
  0
SOLID
  5
17B
330
168
100
AcDbEntity
  8
0
 62
     0
 48
0.3
100
AcDbTrace
 10
1.122514342246025
 20
0.5331972820389494
 30
0.0
 11
1.122514342246025
 21
0.4915306153722827
 31
0.0
 12
0.9975143422460257
 22
0.512363948705616
 32
0.0
 13
0.9975143422460257
 23
0.512363948705616
 33
0.0
  0
MTEXT
  5
17C
330
168
100
AcDbEntity
  8
0
 62
     0
 48
0.3
100
AcDbMText
 10
1.725014342246025
 20
0.512363948705616
 30
0.0
 40
0.125
 41
0.0
 71
     5
 72
     1
  1
\A1;1.455
 73
     1
 44
1.0
  0
POINT
  5
17D
330
168
100
AcDbEntity
  8
Defpoints
 62
     0
 48
0.3
100
AcDbPoint
 10
2.452514342246025
 20
3.128515310282173
 30
0.0
  0
POINT
  5
17E
330
168
100
AcDbEntity
  8
Defpoints
 62
     0
 48
0.3
100
AcDbPoint
 10
0.9975143422460259
 20
3.128515310282173
 30
0.0
  0
POINT
  5
17F
330
168
100
AcDbEntity
  8
Defpoints
 62
     0
 48
0.3
100
AcDbPoint
 10
0.9975143422460257
 20
0.512363948705616
 30
0.0
  0
ENDBLK
  5
174
330
168
100
AcDbEntity
  8
0
 48
0.3
100
AcDbBlockEnd
  0
BLOCK
  5
18D
330
182
100
AcDbEntity
  8
0
 48
0.3
100
AcDbBlockBegin
  2
*D5
 70
     1
 10
0.0
 20
0.0
 30
0.0
  3
*D5
  1

  0
LINE
  5
190
330
182
100
AcDbEntity
  8
0
 62
     0
 48
0.3
370
    -2
100
AcDbLine
 10
2.515014342246025
 20
3.128515310282173
 30
0.0
 11
4.99920120549205
 21
3.128515310282172
 31
0.0
  0
LINE
  5
191
330
182
100
AcDbEntity
  8
0
 62
     0
 48
0.3
370
    -2
100
AcDbLine
 10
2.515014342246025
 20
1.673515310282173
 30
0.0
 11
4.999201205492049
 21
1.673515310282172
 31
0.0
  0
LINE
  5
192
330
182
100
AcDbEntity
  8
0
 62
     0
 48
0.3
370
    -2
100
AcDbLine
 10
4.819201205492049
 20
3.003515310282172
 30
0.0
 11
4.819201205492049
 21
2.553515310282172
 31
0.0
  0
LINE
  5
193
330
182
100
AcDbEntity
  8
0
 62
     0
 48
0.3
370
    -2
100
AcDbLine
 10
4.819201205492048
 20
1.798515310282172
 30
0.0
 11
4.819201205492049
 21
2.248515310282172
 31
0.0
  0
SOLID
  5
194
330
182
100
AcDbEntity
  8
0
 62
     0
 48
0.3
100
AcDbTrace
 10
4.798367872158716
 20
3.003515310282172
 30
0.0
 11
4.840034538825382
 21
3.003515310282172
 31
0.0
 12
4.819201205492049
 22
3.128515310282172
 32
0.0
 13
4.819201205492049
 23
3.128515310282172
 33
0.0
  0
SOLID
  5
195
330
182
100
AcDbEntity
  8
0
 62
     0
 48
0.3
100
AcDbTrace
 10
4.798367872158715
 20
1.798515310282172
 30
0.0
 11
4.840034538825381
 21
1.798515310282172
 31
0.0
 12
4.819201205492048
 22
1.673515310282172
 32
0.0
 13
4.819201205492048
 23
1.673515310282172
 33
0.0
  0
MTEXT
  5
196
330
182
100
AcDbEntity
  8
0
 62
     0
 48
0.3
100
AcDbMText
 10
4.819201205492048
 20
2.401015310282172
 30
0.0
 40
0.125
 41
0.0
 71
     5
 72
     1
  1
\A1;1.455
 73
     1
 44
1.0
  0
POINT
  5
197
330
182
100
AcDbEntity
  8
Defpoints
 62
     0
 48
0.3
100
AcDbPoint
 10
2.452514342246025
 20
3.128515310282173
 30
0.0
  0
POINT
  5
198
330
182
100
AcDbEntity
  8
Defpoints
 62
     0
 48
0.3
100
AcDbPoint
 10
2.452514342246025
 20
1.673515310282173
 30
0.0
  0
POINT
  5
199
330
182
100
AcDbEntity
  8
Defpoints
 62
     0
 48
0.3
100
AcDbPoint
 10
4.819201205492048
 20
1.673515310282172
 30
0.0
  0
ENDBLK
  5
18E
330
182
100
AcDbEntity
  8
0
 48
0.3
100
AcDbBlockEnd
  0
BLOCK
  5
1A7
330
19C
100
AcDbEntity
  8
0
 48
0.3
100
AcDbBlockBegin
  2
*D6
 70
     1
 10
0.0
 20
0.0
 30
0.0
  3
*D6
  1

  0
LINE
  5
1AA
330
19C
100
AcDbEntity
  8
0
 62
     0
 48
0.3
370
    -2
100
AcDbLine
 10
1.827514342246025
 20
5.241015310282172
 30
0.0
 11
1.827514342246025
 21
5.926159017195026
 31
0.0
  0
LINE
  5
1AB
330
19C
100
AcDbEntity
  8
0
 62
     0
 48
0.3
370
    -2
100
AcDbLine
 10
3.077514342246025
 20
5.241015310282172
 30
0.0
 11
3.077514342246025
 21
5.926159017195026
 31
0.0
  0
LINE
  5
1AC
330
19C
100
AcDbEntity
  8
0
 62
     0
 48
0.3
370
    -2
100
AcDbLine
 10
1.952514342246025
 20
5.746159017195026
 30
0.0
 11
2.143764342246025
 21
5.746159017195026
 31
0.0
  0
LINE
  5
1AD
330
19C
100
AcDbEntity
  8
0
 62
     0
 48
0.3
370
    -2
100
AcDbLine
 10
2.952514342246025
 20
5.746159017195026
 30
0.0
 11
2.761264342246025
 21
5.746159017195026
 31
0.0
  0
SOLID
  5
1AE
330
19C
100
AcDbEntity
  8
0
 62
     0
 48
0.3
100
AcDbTrace
 10
1.952514342246025
 20
5.766992350528359
 30
0.0
 11
1.952514342246025
 21
5.725325683861693
 31
0.0
 12
1.827514342246025
 22
5.746159017195026
 32
0.0
 13
1.827514342246025
 23
5.746159017195026
 33
0.0
  0
SOLID
  5
1AF
330
19C
100
AcDbEntity
  8
0
 62
     0
 48
0.3
100
AcDbTrace
 10
2.952514342246025
 20
5.766992350528359
 30
0.0
 11
2.952514342246025
 21
5.725325683861693
 31
0.0
 12
3.077514342246025
 22
5.746159017195026
 32
0.0
 13
3.077514342246025
 23
5.746159017195026
 33
0.0
  0
MTEXT
  5
1B0
330
19C
100
AcDbEntity
  8
0
 62
     0
 48
0.3
100
AcDbMText
 10
2.452514342246025
 20
5.746159017195026
 30
0.0
 40
0.125
 41
0.0
 71
     5
 72
     1
  1
\A1;1.250
 73
     1
 44
1.0
  0
POINT
  5
1B1
330
19C
100
AcDbEntity
  8
Defpoints
 62
     0
 48
0.3
100
AcDbPoint
 10
1.827514342246025
 20
5.178515310282172
 30
0.0
  0
POINT
  5
1B2
330
19C
100
AcDbEntity
  8
Defpoints
 62
     0
 48
0.3
100
AcDbPoint
 10
3.077514342246025
 20
5.178515310282172
 30
0.0
  0
POINT
  5
1B3
330
19C
100
AcDbEntity
  8
Defpoints
 62
     0
 48
0.3
100
AcDbPoint
 10
3.077514342246025
 20
5.746159017195026
 30
0.0
  0
ENDBLK
  5
1A8
330
19C
100
AcDbEntity
  8
0
 48
0.3
100
AcDbBlockEnd
  0
BLOCK
  5
1C1
330
1B6
100
AcDbEntity
  8
0
 48
0.3
100
AcDbBlockBegin
  2
*D7
 70
     1
 10
0.0
 20
0.0
 30
0.0
  3
*D7
  1

  0
LINE
  5
1CF
330
1B6
100
AcDbEntity
  8
0
 62
     0
 48
0.3
370
    -2
100
AcDbLine
 10
1.765014342246025
 20
5.178515310282172
 30
0.0
 11
-0.4319201406650203
 21
5.178515310282172
 31
0.0
  0
LINE
  5
1D0
330
1B6
100
AcDbEntity
  8
0
 62
     0
 48
0.3
370
    -2
100
AcDbLine
 10
1.765014342246024
 20
1.078515310282172
 30
0.0
 11
-0.4319201406650213
 21
1.078515310282173
 31
0.0
  0
LINE
  5
1D1
330
1B6
100
AcDbEntity
  8
0
 62
     0
 48
0.3
370
    -2
100
AcDbLine
 10
-0.2519201406650204
 20
5.053515310282172
 30
0.0
 11
-0.2519201406650207
 21
3.794751329796778
 31
0.0
  0
LINE
  5
1D2
330
1B6
100
AcDbEntity
  8
0
 62
     0
 48
0.3
370
    -2
100
AcDbLine
 10
-0.2519201406650213
 20
1.203515310282173
 30
0.0
 11
-0.2519201406650207
 21
3.489751329796778
 31
0.0
  0
SOLID
  5
1D3
330
1B6
100
AcDbEntity
  8
0
 62
     0
 48
0.3
100
AcDbTrace
 10
-0.2727534739983537
 20
5.053515310282172
 30
0.0
 11
-0.2310868073316871
 21
5.053515310282172
 31
0.0
 12
-0.2519201406650204
 22
5.178515310282172
 32
0.0
 13
-0.2519201406650204
 23
5.178515310282172
 33
0.0
  0
SOLID
  5
1D4
330
1B6
100
AcDbEntity
  8
0
 62
     0
 48
0.3
100
AcDbTrace
 10
-0.2727534739983546
 20
1.203515310282173
 30
0.0
 11
-0.2310868073316879
 21
1.203515310282173
 31
0.0
 12
-0.2519201406650213
 22
1.078515310282173
 32
0.0
 13
-0.2519201406650213
 23
1.078515310282173
 33
0.0
  0
MTEXT
  5
1D5
330
1B6
100
AcDbEntity
  8
0
 62
     0
 48
0.3
100
AcDbMText
 10
-0.2519201406650213
 20
3.642251329796778
 30
0.0
 40
0.125
 41
0.0
 71
     5
 72
     1
  1
\A1;4.100
 73
     1
 44
1.0
  0
POINT
  5
1D6
330
1B6
100
AcDbEntity
  8
Defpoints
 62
     0
 48
0.3
100
AcDbPoint
 10
1.827514342246025
 20
5.178515310282172
 30
0.0
  0
POINT
  5
1D7
330
1B6
100
AcDbEntity
  8
Defpoints
 62
     0
 48
0.3
100
AcDbPoint
 10
1.827514342246024
 20
1.078515310282172
 30
0.0
  0
POINT
  5
1D8
330
1B6
100
AcDbEntity
  8
Defpoints
 62
     0
 48
0.3
100
AcDbPoint
 10
-0.2519201406650213
 20
1.078515310282173
 30
0.0
  0
ENDBLK
  5
1C2
330
1B6
100
AcDbEntity
  8
0
 48
0.3
100
AcDbBlockEnd
  0
BLOCK
  5
1E6
330
1DA
100
AcDbEntity
  8
0
 48
0.3
100
AcDbBlockBegin
  2
*D8
 70
     1
 10
0.0
 20
0.0
 30
0.0
  3
*D8
  1

  0
LINE
  5
1E9
330
1DA
100
AcDbEntity
  8
0
 62
     0
 48
0.3
370
    -2
100
AcDbLine
 10
1.765014342246025
 20
5.178515310282172
 30
0.0
 11
-0.6119201406650206
 21
5.178515310282172
 31
0.0
  0
LINE
  5
1EA
330
1DA
100
AcDbEntity
  8
0
 62
     0
 48
0.3
370
    -2
100
AcDbLine
 10
1.202514342246025
 20
5.378038516804217
 30
0.0
 11
-0.6119201406650202
 21
5.378038516804217
 31
0.0
  0
LINE
  5
1EB
330
1DA
100
AcDbEntity
  8
0
 62
     0
 48
0.3
370
    -2
100
AcDbLine
 10
-0.4319201406650204
 20
5.053515310282172
 30
0.0
 11
-0.4319201406650204
 21
4.928515310282172
 31
0.0
  0
LINE
  5
1EC
330
1DA
100
AcDbEntity
  8
0
 62
     0
 48
0.3
370
    -2
100
AcDbLine
 10
-0.4319201406650203
 20
5.503038516804217
 30
0.0
 11
-0.4319201406650202
 21
5.628038516804217
 31
0.0
  0
LINE
  5
1ED
330
1DA
100
AcDbEntity
  8
0
 62
     0
 48
0.3
370
    -2
100
AcDbLine
 10
-0.4319201406650202
 20
5.628038516804217
 30
0.0
 11
-0.3069201406650202
 21
5.628038516804217
 31
0.0
  0
SOLID
  5
1EE
330
1DA
100
AcDbEntity
  8
0
 62
     0
 48
0.3
100
AcDbTrace
 10
-0.4527534739983537
 20
5.053515310282172
 30
0.0
 11
-0.4110868073316871
 21
5.053515310282172
 31
0.0
 12
-0.4319201406650203
 22
5.178515310282172
 32
0.0
 13
-0.4319201406650203
 23
5.178515310282172
 33
0.0
  0
SOLID
  5
1EF
330
1DA
100
AcDbEntity
  8
0
 62
     0
 48
0.3
100
AcDbTrace
 10
-0.4527534739983536
 20
5.503038516804217
 30
0.0
 11
-0.411086807331687
 21
5.503038516804217
 31
0.0
 12
-0.4319201406650203
 22
5.378038516804217
 32
0.0
 13
-0.4319201406650203
 23
5.378038516804217
 33
0.0
  0
MTEXT
  5
1F0
330
1DA
100
AcDbEntity
  8
0
 62
     0
 48
0.3
100
AcDbMText
 10
0.0018298593349788
 20
5.628038516804217
 30
0.0
 40
0.125
 41
0.0
 71
     5
 72
     1
  1
\A1;0.200
 73
     1
 44
1.0
  0
POINT
  5
1F1
330
1DA
100
AcDbEntity
  8
Defpoints
 62
     0
 48
0.3
100
AcDbPoint
 10
1.827514342246025
 20
5.178515310282172
 30
0.0
  0
POINT
  5
1F2
330
1DA
100
AcDbEntity
  8
Defpoints
 62
     0
 48
0.3
100
AcDbPoint
 10
1.265014342246025
 20
5.378038516804217
 30
0.0
  0
POINT
  5
1F3
330
1DA
100
AcDbEntity
  8
Defpoints
 62
     0
 48
0.3
100
AcDbPoint
 10
-0.4319201406650203
 20
5.378038516804217
 30
0.0
  0
ENDBLK
  5
1E7
330
1DA
100
AcDbEntity
  8
0
 48
0.3
100
AcDbBlockEnd
  0
BLOCK
  5
201
330
1F6
100
AcDbEntity
  8
0
 48
0.3
100
AcDbBlockBegin
  2
*D9
 70
     1
 10
0.0
 20
0.0
 30
0.0
  3
*D9
  1

  0
LINE
  5
20F
330
1F6
100
AcDbEntity
  8
0
 62
     0
 48
0.3
370
    -2
100
AcDbLine
 10
2.452514342246024
 20
3.066015310282172
 30
0.0
 11
2.452514342246024
 21
0.3622597608937492
 31
0.0
  0
LINE
  5
210
330
1F6
100
AcDbEntity
  8
0
 62
     0
 48
0.3
370
    -2
100
AcDbLine
 10
4.390014342246025
 20
2.315538516804215
 30
0.0
 11
4.390014342246025
 21
0.3622597608937492
 31
0.0
  0
LINE
  5
211
330
1F6
100
AcDbEntity
  8
0
 62
     0
 48
0.3
370
    -2
100
AcDbLine
 10
2.577514342246024
 20
0.5422597608937494
 30
0.0
 11
3.102097675579358
 21
0.5422597608937494
 31
0.0
  0
LINE
  5
212
330
1F6
100
AcDbEntity
  8
0
 62
     0
 48
0.3
370
    -2
100
AcDbLine
 10
4.265014342246025
 20
0.5422597608937494
 30
0.0
 11
3.740431008912691
 21
0.5422597608937494
 31
0.0
  0
SOLID
  5
213
330
1F6
100
AcDbEntity
  8
0
 62
     0
 48
0.3
100
AcDbTrace
 10
2.577514342246024
 20
0.5630930942270828
 30
0.0
 11
2.577514342246024
 21
0.521426427560416
 31
0.0
 12
2.452514342246024
 22
0.5422597608937494
 32
0.0
 13
2.452514342246024
 23
0.5422597608937494
 33
0.0
  0
SOLID
  5
214
330
1F6
100
AcDbEntity
  8
0
 62
     0
 48
0.3
100
AcDbTrace
 10
4.265014342246025
 20
0.5630930942270828
 30
0.0
 11
4.265014342246025
 21
0.521426427560416
 31
0.0
 12
4.390014342246025
 22
0.5422597608937494
 32
0.0
 13
4.390014342246025
 23
0.5422597608937494
 33
0.0
  0
MTEXT
  5
215
330
1F6
100
AcDbEntity
  8
0
 62
     0
 48
0.3
100
AcDbMText
 10
3.421264342246025
 20
0.5422597608937494
 30
0.0
 40
0.125
 41
0.0
 71
     5
 72
     1
  1
\A1;1.938
 73
     1
 44
1.0
  0
POINT
  5
216
330
1F6
100
AcDbEntity
  8
Defpoints
 62
     0
 48
0.3
100
AcDbPoint
 10
2.452514342246024
 20
3.128515310282172
 30
0.0
  0
POINT
  5
217
330
1F6
100
AcDbEntity
  8
Defpoints
 62
     0
 48
0.3
100
AcDbPoint
 10
4.390014342246025
 20
2.378038516804215
 30
0.0
  0
POINT
  5
218
330
1F6
100
AcDbEntity
  8
Defpoints
 62
     0
 48
0.3
100
AcDbPoint
 10
4.390014342246025
 20
0.5422597608937494
 30
0.0
  0
ENDBLK
  5
202
330
1F6
100
AcDbEntity
  8
0
 48
0.3
100
AcDbBlockEnd
  0
BLOCK
  5
225
330
21A
100
AcDbEntity
  8
0
 48
0.3
100
AcDbBlockBegin
  2
*D10
 70
     1
 10
0.0
 20
0.0
 30
0.0
  3
*D10
  1

  0
LINE
  5
228
330
21A
100
AcDbEntity
  8
0
 62
     0
 48
0.3
370
    -2
100
AcDbLine
 10
6.367327246636973
 20
0.8155385168042165
 30
0.0
 11
6.367327246636973
 21
0.2024930888963322
 31
0.0
  0
LINE
  5
229
330
21A
100
AcDbEntity
  8
0
 62
     0
 48
0.3
370
    -2
100
AcDbLine
 10
6.742327246636974
 20
0.8155385168042164
 30
0.0
 11
6.742327246636974
 21
0.2024930888963323
 31
0.0
  0
LINE
  5
22A
330
21A
100
AcDbEntity
  8
0
 62
     0
 48
0.3
370
    -2
100
AcDbLine
 10
6.242327246636973
 20
0.3824930888963323
 30
0.0
 11
6.117327246636973
 21
0.3824930888963323
 31
0.0
  0
LINE
  5
22B
330
21A
100
AcDbEntity
  8
0
 62
     0
 48
0.3
370
    -2
100
AcDbLine
 10
6.867327246636974
 20
0.3824930888963323
 30
0.0
 11
6.992327246636973
 21
0.3824930888963323
 31
0.0
  0
SOLID
  5
22C
330
21A
100
AcDbEntity
  8
0
 62
     0
 48
0.3
100
AcDbTrace
 10
6.242327246636973
 20
0.4033264222296656
 30
0.0
 11
6.242327246636973
 21
0.361659755562999
 31
0.0
 12
6.367327246636973
 22
0.3824930888963323
 32
0.0
 13
6.367327246636973
 23
0.3824930888963323
 33
0.0
  0
SOLID
  5
22D
330
21A
100
AcDbEntity
  8
0
 62
     0
 48
0.3
100
AcDbTrace
 10
6.867327246636974
 20
0.4033264222296656
 30
0.0
 11
6.867327246636974
 21
0.361659755562999
 31
0.0
 12
6.742327246636974
 22
0.3824930888963323
 32
0.0
 13
6.742327246636974
 23
0.3824930888963323
 33
0.0
  0
MTEXT
  5
22E
330
21A
100
AcDbEntity
  8
0
 62
     0
 48
0.3
100
AcDbMText
 10
7.321910579970307
 20
0.3824930888963323
 30
0.0
 40
0.125
 41
0.0
 71
     5
 72
     1
  1
\A1;0.375
 73
     1
 44
1.0
  0
POINT
  5
22F
330
21A
100
AcDbEntity
  8
Defpoints
 62
     0
 48
0.3
100
AcDbPoint
 10
6.367327246636973
 20
0.8780385168042165
 30
0.0
  0
POINT
  5
230
330
21A
100
AcDbEntity
  8
Defpoints
 62
     0
 48
0.3
100
AcDbPoint
 10
6.742327246636974
 20
0.8780385168042164
 30
0.0
  0
POINT
  5
231
330
21A
100
AcDbEntity
  8
Defpoints
 62
     0
 48
0.3
100
AcDbPoint
 10
6.742327246636974
 20
0.3824930888963323
 30
0.0
  0
ENDBLK
  5
226
330
21A
100
AcDbEntity
  8
0
 48
0.3
100
AcDbBlockEnd
  0
BLOCK
  5
23F
330
234
100
AcDbEntity
  8
0
 48
0.3
100
AcDbBlockBegin
  2
*D11
 70
     1
 10
0.0
 20
0.0
 30
0.0
  3
*D11
  1

  0
LINE
  5
242
330
234
100
AcDbEntity
  8
0
 62
     0
 48
0.3
370
    -2
100
AcDbLine
 10
6.554327246636974
 20
1.908015310282173
 30
0.0
 11
6.554327246636974
 21
2.17289157488625
 31
0.0
  0
LINE
  5
243
330
234
100
AcDbEntity
  8
0
 62
     0
 48
0.3
370
    -2
100
AcDbLine
 10
6.742327246636974
 20
1.908015310282173
 30
0.0
 11
6.742327246636974
 21
2.17289157488625
 31
0.0
  0
LINE
  5
244
330
234
100
AcDbEntity
  8
0
 62
     0
 48
0.3
370
    -2
100
AcDbLine
 10
6.429327246636974
 20
1.99289157488625
 30
0.0
 11
6.304327246636974
 21
1.99289157488625
 31
0.0
  0
LINE
  5
245
330
234
100
AcDbEntity
  8
0
 62
     0
 48
0.3
370
    -2
100
AcDbLine
 10
6.867327246636974
 20
1.99289157488625
 30
0.0
 11
6.992327246636974
 21
1.99289157488625
 31
0.0
  0
SOLID
  5
246
330
234
100
AcDbEntity
  8
0
 62
     0
 48
0.3
100
AcDbTrace
 10
6.429327246636974
 20
2.013724908219584
 30
0.0
 11
6.429327246636974
 21
1.972058241552917
 31
0.0
 12
6.554327246636974
 22
1.99289157488625
 32
0.0
 13
6.554327246636974
 23
1.99289157488625
 33
0.0
  0
SOLID
  5
247
330
234
100
AcDbEntity
  8
0
 62
     0
 48
0.3
100
AcDbTrace
 10
6.867327246636974
 20
2.013724908219584
 30
0.0
 11
6.867327246636974
 21
1.972058241552917
 31
0.0
 12
6.742327246636974
 22
1.99289157488625
 32
0.0
 13
6.742327246636974
 23
1.99289157488625
 33
0.0
  0
MTEXT
  5
248
330
234
100
AcDbEntity
  8
0
 62
     0
 48
0.3
100
AcDbMText
 10
7.301077246636974
 20
1.99289157488625
 30
0.0
 40
0.125
 41
0.0
 71
     5
 72
     1
  1
\A1;0.188
 73
     1
 44
1.0
  0
POINT
  5
249
330
234
100
AcDbEntity
  8
Defpoints
 62
     0
 48
0.3
100
AcDbPoint
 10
6.554327246636974
 20
1.845515310282173
 30
0.0
  0
POINT
  5
24A
330
234
100
AcDbEntity
  8
Defpoints
 62
     0
 48
0.3
100
AcDbPoint
 10
6.742327246636974
 20
1.845515310282173
 30
0.0
  0
POINT
  5
24B
330
234
100
AcDbEntity
  8
Defpoints
 62
     0
 48
0.3
100
AcDbPoint
 10
6.742327246636974
 20
1.99289157488625
 30
0.0
  0
ENDBLK
  5
240
330
234
100
AcDbEntity
  8
0
 48
0.3
100
AcDbBlockEnd
  0
BLOCK
  5
259
330
24E
100
AcDbEntity
  8
0
 48
0.3
100
AcDbBlockBegin
  2
*D12
 70
     1
 10
0.0
 20
0.0
 30
0.0
  3
*D12
  1

  0
LINE
  5
24F
330
24E
100
AcDbEntity
  8
0
 62
     0
 48
0.3
370
    -2
100
AcDbLine
 10
2.452514342246025
 20
3.191015310282173
 30
0.0
 11
2.452514342246025
 21
3.575496707136963
 31
0.0
  0
LINE
  5
250
330
24E
100
AcDbEntity
  8
0
 62
     0
 48
0.3
370
    -2
100
AcDbLine
 10
1.577514342246024
 20
3.191015310282173
 30
0.0
 11
1.577514342246024
 21
3.575496707136963
 31
0.0
  0
LINE
  5
251
330
24E
100
AcDbEntity
  8
0
 62
     0
 48
0.3
370
    -2
100
AcDbLine
 10
2.577514342246025
 20
3.395496707136963
 30
0.0
 11
2.702514342246025
 21
3.395496707136963
 31
0.0
  0
LINE
  5
252
330
24E
100
AcDbEntity
  8
0
 62
     0
 48
0.3
370
    -2
100
AcDbLine
 10
1.452514342246024
 20
3.395496707136963
 30
0.0
 11
1.327514342246024
 21
3.395496707136963
 31
0.0
  0
SOLID
  5
253
330
24E
100
AcDbEntity
  8
0
 62
     0
 48
0.3
100
AcDbTrace
 10
2.577514342246025
 20
3.416330040470297
 30
0.0
 11
2.577514342246025
 21
3.37466337380363
 31
0.0
 12
2.452514342246025
 22
3.395496707136963
 32
0.0
 13
2.452514342246025
 23
3.395496707136963
 33
0.0
  0
SOLID
  5
254
330
24E
100
AcDbEntity
  8
0
 62
     0
 48
0.3
100
AcDbTrace
 10
1.452514342246024
 20
3.416330040470297
 30
0.0
 11
1.452514342246024
 21
3.37466337380363
 31
0.0
 12
1.577514342246024
 22
3.395496707136963
 32
0.0
 13
1.577514342246024
 23
3.395496707136963
 33
0.0
  0
MTEXT
  5
255
330
24E
100
AcDbEntity
  8
0
 62
     0
 48
0.3
100
AcDbMText
 10
2.015014342246025
 20
3.395496707136963
 30
0.0
 40
0.125
 41
0.0
 71
     5
 72
     1
  1
\A1;0.875
 73
     1
 44
1.0
  0
POINT
  5
256
330
24E
100
AcDbEntity
  8
Defpoints
 62
     0
 48
0.3
100
AcDbPoint
 10
2.452514342246025
 20
3.128515310282173
 30
0.0
  0
POINT
  5
257
330
24E
100
AcDbEntity
  8
Defpoints
 62
     0
 48
0.3
100
AcDbPoint
 10
1.577514342246024
 20
3.128515310282173
 30
0.0
  0
POINT
  5
258
330
24E
100
AcDbEntity
  8
Defpoints
 62
     0
 48
0.3
100
AcDbPoint
 10
1.577514342246024
 20
3.395496707136963
 30
0.0
  0
ENDBLK
  5
25A
330
24E
100
AcDbEntity
  8
0
 48
0.3
100
AcDbBlockEnd
  0
BLOCK
  5
267
330
25C
100
AcDbEntity
  8
0
 48
0.3
100
AcDbBlockBegin
  2
*D13
 70
     1
 10
0.0
 20
0.0
 30
0.0
  3
*D13
  1

  0
LINE
  5
26A
330
25C
100
AcDbEntity
  8
0
 62
     0
 48
0.3
370
    -2
100
AcDbLine
 10
2.515014342246025
 20
3.128515310282173
 30
0.0
 11
3.037412030351603
 21
3.128515310282172
 31
0.0
  0
LINE
  5
26B
330
25C
100
AcDbEntity
  8
0
 62
     0
 48
0.3
370
    -2
100
AcDbLine
 10
2.515014342246025
 20
4.003515310282172
 30
0.0
 11
3.037412030351603
 21
4.003515310282172
 31
0.0
  0
LINE
  5
26C
330
25C
100
AcDbEntity
  8
0
 62
     0
 48
0.3
370
    -2
100
AcDbLine
 10
2.857412030351603
 20
3.253515310282173
 30
0.0
 11
2.857412030351603
 21
3.413515310282173
 31
0.0
  0
LINE
  5
26D
330
25C
100
AcDbEntity
  8
0
 62
     0
 48
0.3
370
    -2
100
AcDbLine
 10
2.857412030351603
 20
3.878515310282173
 30
0.0
 11
2.857412030351603
 21
3.718515310282172
 31
0.0
  0
SOLID
  5
26E
330
25C
100
AcDbEntity
  8
0
 62
     0
 48
0.3
100
AcDbTrace
 10
2.83657869701827
 20
3.253515310282173
 30
0.0
 11
2.878245363684937
 21
3.253515310282173
 31
0.0
 12
2.857412030351603
 22
3.128515310282173
 32
0.0
 13
2.857412030351603
 23
3.128515310282173
 33
0.0
  0
SOLID
  5
26F
330
25C
100
AcDbEntity
  8
0
 62
     0
 48
0.3
100
AcDbTrace
 10
2.83657869701827
 20
3.878515310282173
 30
0.0
 11
2.878245363684937
 21
3.878515310282173
 31
0.0
 12
2.857412030351603
 22
4.003515310282172
 32
0.0
 13
2.857412030351603
 23
4.003515310282172
 33
0.0
  0
MTEXT
  5
270
330
25C
100
AcDbEntity
  8
0
 62
     0
 48
0.3
100
AcDbMText
 10
2.857412030351603
 20
3.566015310282173
 30
0.0
 40
0.125
 41
0.0
 71
     5
 72
     1
  1
\A1;0.875
 73
     1
 44
1.0
  0
POINT
  5
271
330
25C
100
AcDbEntity
  8
Defpoints
 62
     0
 48
0.3
100
AcDbPoint
 10
2.452514342246025
 20
3.128515310282173
 30
0.0
  0
POINT
  5
272
330
25C
100
AcDbEntity
  8
Defpoints
 62
     0
 48
0.3
100
AcDbPoint
 10
2.452514342246025
 20
4.003515310282172
 30
0.0
  0
POINT
  5
273
330
25C
100
AcDbEntity
  8
Defpoints
 62
     0
 48
0.3
100
AcDbPoint
 10
2.857412030351603
 20
4.003515310282172
 30
0.0
  0
ENDBLK
  5
268
330
25C
100
AcDbEntity
  8
0
 48
0.3
100
AcDbBlockEnd
  0
BLOCK
  5
27F
330
276
100
AcDbEntity
  8
0
 48
0.3
100
AcDbBlockBegin
  2
*D14
 70
     1
 10
0.0
 20
0.0
 30
0.0
  3
*D14
  1

  0
LINE
  5
282
330
276
100
AcDbEntity
  8
0
 62
     0
 48
0.3
370
    -2
100
AcDbLine
 10
2.907550043605914
 20
4.84649902808213
 30
0.0
 11
2.782550043605915
 21
4.84649902808213
 31
0.0
  0
LINE
  5
283
330
276
100
AcDbEntity
  8
0
 62
     0
 48
0.3
370
    -2
100
AcDbLine
 10
2.782550043605915
 20
4.84649902808213
 30
0.0
 11
2.684790653392678
 21
4.768601007406788
 31
0.0
  0
MTEXT
  5
284
330
276
100
AcDbEntity
  8
0
 62
     0
 48
0.3
100
AcDbMText
 10
3.299633376939248
 20
4.84649902808213
 30
0.0
 40
0.125
 41
0.0
 71
     5
 72
     1
  1
\A1;\U+22050.344
 73
     1
 44
1.0
  0
SOLID
  5
285
330
276
100
AcDbEntity
  8
0
 62
     0
 48
0.3
100
AcDbTrace
 10
2.671807649946788
 20
4.784894239108994
 30
0.0
 11
2.697773656838569
 21
4.752307775704581
 31
0.0
 12
2.587031263179441
 22
4.690702986731444
 32
0.0
 13
2.587031263179441
 23
4.690702986731444
 33
0.0
  0
LINE
  5
286
330
276
100
AcDbEntity
  8
0
 62
     0
 48
0.3
370
    -2
100
AcDbLine
 10
2.362514342246028
 20
4.583515310282174
 30
0.0
 11
2.542514342246027
 21
4.583515310282173
 31
0.0
  0
LINE
  5
287
330
276
100
AcDbEntity
  8
0
 62
     0
 48
0.3
370
    -2
100
AcDbLine
 10
2.452514342246027
 20
4.493515310282173
 30
0.0
 11
2.452514342246027
 21
4.673515310282174
 31
0.0
  0
POINT
  5
288
330
276
100
AcDbEntity
  8
Defpoints
 62
     0
 48
0.3
100
AcDbPoint
 10
2.587031263179441
 20
4.690702986731444
 30
0.0
  0
POINT
  5
289
330
276
100
AcDbEntity
  8
Defpoints
 62
     0
 48
0.3
100
AcDbPoint
 10
2.317997421312614
 20
4.476327633832902
 30
0.0
  0
ENDBLK
  5
280
330
276
100
AcDbEntity
  8
0
 48
0.3
100
AcDbBlockEnd
  0
BLOCK
  5
295
330
28C
100
AcDbEntity
  8
0
 48
0.3
100
AcDbBlockBegin
  2
*D15
 70
     1
 10
0.0
 20
0.0
 30
0.0
  3
*D15
  1

  0
LINE
  5
298
330
28C
100
AcDbEntity
  8
0
 62
     0
 48
0.3
370
    -2
100
AcDbLine
 10
2.877054086254967
 20
4.399590891677521
 30
0.0
 11
2.752054086254967
 21
4.399590891677521
 31
0.0
  0
LINE
  5
299
330
28C
100
AcDbEntity
  8
0
 62
     0
 48
0.3
370
    -2
100
AcDbLine
 10
2.752054086254967
 20
4.399590891677521
 30
0.0
 11
2.645532128926041
 21
4.464997868421707
 31
0.0
  0
MTEXT
  5
29A
330
28C
100
AcDbEntity
  8
0
 62
     0
 48
0.3
100
AcDbMText
 10
3.258720752921633
 20
4.399590891677521
 30
0.0
 40
0.125
 41
0.0
 71
     5
 72
     1
  1
\A1;\U+22050.203
 73
     1
 44
1.0
  0
SOLID
  5
29B
330
28C
100
AcDbEntity
  8
0
 62
     0
 48
0.3
100
AcDbTrace
 10
2.656433291716739
 20
4.482751527976527
 30
0.0
 11
2.634630966135343
 21
4.447244208866885
 31
0.0
 12
2.539010171597115
 22
4.530404845165892
 32
0.0
 13
2.539010171597115
 23
4.530404845165892
 33
0.0
  0
LINE
  5
29C
330
28C
100
AcDbEntity
  8
0
 62
     0
 48
0.3
370
    -2
100
AcDbLine
 10
2.362514342246027
 20
4.58351531028217
 30
0.0
 11
2.542514342246027
 21
4.583515310282171
 31
0.0
  0
LINE
  5
29D
330
28C
100
AcDbEntity
  8
0
 62
     0
 48
0.3
370
    -2
100
AcDbLine
 10
2.452514342246027
 20
4.493515310282171
 30
0.0
 11
2.452514342246027
 21
4.67351531028217
 31
0.0
  0
POINT
  5
29E
330
28C
100
AcDbEntity
  8
Defpoints
 62
     0
 48
0.3
100
AcDbPoint
 10
2.539010171597115
 20
4.530404845165892
 30
0.0
  0
POINT
  5
29F
330
28C
100
AcDbEntity
  8
Defpoints
 62
     0
 48
0.3
100
AcDbPoint
 10
2.366018512894939
 20
4.63662577539845
 30
0.0
  0
ENDBLK
  5
296
330
28C
100
AcDbEntity
  8
0
 48
0.3
100
AcDbBlockEnd
  0
BLOCK
  5
2AE
330
2A2
100
AcDbEntity
  8
0
 48
0.3
100
AcDbBlockBegin
  2
*D16
 70
     1
 10
0.0
 20
0.0
 30
0.0
  3
*D16
  1

  0
LINE
  5
2B1
330
2A2
100
AcDbEntity
  8
0
 62
     0
 48
0.3
370
    -2
100
AcDbLine
 10
3.140014342246025
 20
5.053515310282172
 30
0.0
 11
4.296635594183975
 21
5.053515310282172
 31
0.0
  0
LINE
  5
2B2
330
2A2
100
AcDbEntity
  8
0
 62
     0
 48
0.3
370
    -2
100
AcDbLine
 10
3.140014342246025
 20
5.303515310282172
 30
0.0
 11
4.296635594183975
 21
5.303515310282172
 31
0.0
  0
LINE
  5
2B3
330
2A2
100
AcDbEntity
  8
0
 62
     0
 48
0.3
370
    -2
100
AcDbLine
 10
4.116635594183975
 20
4.928515310282172
 30
0.0
 11
4.116635594183975
 21
4.803515310282172
 31
0.0
  0
LINE
  5
2B4
330
2A2
100
AcDbEntity
  8
0
 62
     0
 48
0.3
370
    -2
100
AcDbLine
 10
4.116635594183975
 20
5.428515310282172
 30
0.0
 11
4.116635594183975
 21
5.553515310282172
 31
0.0
  0
LINE
  5
2B5
330
2A2
100
AcDbEntity
  8
0
 62
     0
 48
0.3
370
    -2
100
AcDbLine
 10
4.116635594183975
 20
5.553515310282172
 30
0.0
 11
4.241635594183975
 21
5.553515310282172
 31
0.0
  0
SOLID
  5
2B6
330
2A2
100
AcDbEntity
  8
0
 62
     0
 48
0.3
100
AcDbTrace
 10
4.095802260850642
 20
4.928515310282172
 30
0.0
 11
4.137468927517308
 21
4.928515310282172
 31
0.0
 12
4.116635594183975
 22
5.053515310282172
 32
0.0
 13
4.116635594183975
 23
5.053515310282172
 33
0.0
  0
SOLID
  5
2B7
330
2A2
100
AcDbEntity
  8
0
 62
     0
 48
0.3
100
AcDbTrace
 10
4.095802260850642
 20
5.428515310282172
 30
0.0
 11
4.137468927517308
 21
5.428515310282172
 31
0.0
 12
4.116635594183975
 22
5.303515310282172
 32
0.0
 13
4.116635594183975
 23
5.303515310282172
 33
0.0
  0
MTEXT
  5
2B8
330
2A2
100
AcDbEntity
  8
0
 62
     0
 48
0.3
100
AcDbMText
 10
4.560802260850641
 20
5.553515310282173
 30
0.0
 40
0.125
 41
0.0
 71
     5
 72
     1
  1
\A1;0.250
 73
     1
 44
1.0
  0
POINT
  5
2B9
330
2A2
100
AcDbEntity
  8
Defpoints
 62
     0
 48
0.3
100
AcDbPoint
 10
3.077514342246025
 20
5.053515310282172
 30
0.0
  0
POINT
  5
2BA
330
2A2
100
AcDbEntity
  8
Defpoints
 62
     0
 48
0.3
100
AcDbPoint
 10
3.077514342246025
 20
5.303515310282172
 30
0.0
  0
POINT
  5
2BB
330
2A2
100
AcDbEntity
  8
Defpoints
 62
     0
 48
0.3
100
AcDbPoint
 10
4.116635594183975
 20
5.303515310282172
 30
0.0
  0
ENDBLK
  5
2AF
330
2A2
100
AcDbEntity
  8
0
 48
0.3
100
AcDbBlockEnd
  0
BLOCK
  5
2C9
330
2BE
100
AcDbEntity
  8
0
 48
0.3
100
AcDbBlockBegin
  2
*D17
 70
     1
 10
0.0
 20
0.0
 30
0.0
  3
*D17
  1

  0
LINE
  5
2CC
330
2BE
100
AcDbEntity
  8
0
 62
     0
 48
0.3
370
    -2
100
AcDbLine
 10
0.5150143422460248
 20
3.940538516804217
 30
0.0
 11
0.515014342246025
 21
5.932185733642949
 31
0.0
  0
LINE
  5
2CD
330
2BE
100
AcDbEntity
  8
0
 62
     0
 48
0.3
370
    -2
100
AcDbLine
 10
1.827514342246025
 20
5.241015310282172
 30
0.0
 11
1.827514342246025
 21
5.932185733642949
 31
0.0
  0
LINE
  5
2CE
330
2BE
100
AcDbEntity
  8
0
 62
     0
 48
0.3
370
    -2
100
AcDbLine
 10
0.640014342246025
 20
5.752185733642949
 30
0.0
 11
0.8729310089126919
 21
5.752185733642949
 31
0.0
  0
LINE
  5
2CF
330
2BE
100
AcDbEntity
  8
0
 62
     0
 48
0.3
370
    -2
100
AcDbLine
 10
1.702514342246025
 20
5.752185733642949
 30
0.0
 11
1.469597675579358
 21
5.752185733642949
 31
0.0
  0
SOLID
  5
2D0
330
2BE
100
AcDbEntity
  8
0
 62
     0
 48
0.3
100
AcDbTrace
 10
0.640014342246025
 20
5.773019066976282
 30
0.0
 11
0.640014342246025
 21
5.731352400309616
 31
0.0
 12
0.515014342246025
 22
5.752185733642949
 32
0.0
 13
0.515014342246025
 23
5.752185733642949
 33
0.0
  0
SOLID
  5
2D1
330
2BE
100
AcDbEntity
  8
0
 62
     0
 48
0.3
100
AcDbTrace
 10
1.702514342246025
 20
5.773019066976282
 30
0.0
 11
1.702514342246025
 21
5.731352400309616
 31
0.0
 12
1.827514342246025
 22
5.752185733642949
 32
0.0
 13
1.827514342246025
 23
5.752185733642949
 33
0.0
  0
MTEXT
  5
2D2
330
2BE
100
AcDbEntity
  8
0
 62
     0
 48
0.3
100
AcDbMText
 10
1.171264342246025
 20
5.752185733642949
 30
0.0
 40
0.125
 41
0.0
 71
     5
 72
     1
  1
\A1;1.313
 73
     1
 44
1.0
  0
POINT
  5
2D3
330
2BE
100
AcDbEntity
  8
Defpoints
 62
     0
 48
0.3
100
AcDbPoint
 10
0.5150143422460248
 20
3.878038516804217
 30
0.0
  0
POINT
  5
2D4
330
2BE
100
AcDbEntity
  8
Defpoints
 62
     0
 48
0.3
100
AcDbPoint
 10
1.827514342246025
 20
5.178515310282172
 30
0.0
  0
POINT
  5
2D5
330
2BE
100
AcDbEntity
  8
Defpoints
 62
     0
 48
0.3
100
AcDbPoint
 10
1.827514342246025
 20
5.752185733642949
 30
0.0
  0
ENDBLK
  5
2CA
330
2BE
100
AcDbEntity
  8
0
 48
0.3
100
AcDbBlockEnd
  0
BLOCK
  5
2E3
330
2D8
100
AcDbEntity
  8
0
 48
0.3
100
AcDbBlockBegin
  2
*D18
 70
     1
 10
0.0
 20
0.0
 30
0.0
  3
*D18
  1

  0
LINE
  5
2E6
330
2D8
100
AcDbEntity
  8
0
 62
     0
 48
0.3
370
    -2
100
AcDbLine
 10
1.202514342246025
 20
5.378038516804217
 30
0.0
 11
0.0551193836482825
 21
5.378038516804217
 31
0.0
  0
LINE
  5
2E7
330
2D8
100
AcDbEntity
  8
0
 62
     0
 48
0.3
370
    -2
100
AcDbLine
 10
0.4525143422460248
 20
3.878038516804217
 30
0.0
 11
0.055119383648282
 21
3.878038516804217
 31
0.0
  0
LINE
  5
2E8
330
2D8
100
AcDbEntity
  8
0
 62
     0
 48
0.3
370
    -2
100
AcDbLine
 10
0.2351193836482823
 20
5.253038516804217
 30
0.0
 11
0.2351193836482822
 21
4.780538516804217
 31
0.0
  0
LINE
  5
2E9
330
2D8
100
AcDbEntity
  8
0
 62
     0
 48
0.3
370
    -2
100
AcDbLine
 10
0.235119383648282
 20
4.003038516804217
 30
0.0
 11
0.2351193836482821
 21
4.475538516804217
 31
0.0
  0
SOLID
  5
2EA
330
2D8
100
AcDbEntity
  8
0
 62
     0
 48
0.3
100
AcDbTrace
 10
0.214286050314949
 20
5.253038516804217
 30
0.0
 11
0.2559527169816156
 21
5.253038516804217
 31
0.0
 12
0.2351193836482823
 22
5.378038516804217
 32
0.0
 13
0.2351193836482823
 23
5.378038516804217
 33
0.0
  0
SOLID
  5
2EB
330
2D8
100
AcDbEntity
  8
0
 62
     0
 48
0.3
100
AcDbTrace
 10
0.2142860503149487
 20
4.003038516804217
 30
0.0
 11
0.2559527169816154
 21
4.003038516804217
 31
0.0
 12
0.235119383648282
 22
3.878038516804217
 32
0.0
 13
0.235119383648282
 23
3.878038516804217
 33
0.0
  0
MTEXT
  5
2EC
330
2D8
100
AcDbEntity
  8
0
 62
     0
 48
0.3
100
AcDbMText
 10
0.2351193836482814
 20
4.628038516804217
 30
0.0
 40
0.125
 41
0.0
 71
     5
 72
     1
  1
\A1;1.500
 73
     1
 44
1.0
  0
POINT
  5
2ED
330
2D8
100
AcDbEntity
  8
Defpoints
 62
     0
 48
0.3
100
AcDbPoint
 10
1.265014342246025
 20
5.378038516804217
 30
0.0
  0
POINT
  5
2EE
330
2D8
100
AcDbEntity
  8
Defpoints
 62
     0
 48
0.3
100
AcDbPoint
 10
0.5150143422460248
 20
3.878038516804217
 30
0.0
  0
POINT
  5
2EF
330
2D8
100
AcDbEntity
  8
Defpoints
 62
     0
 48
0.3
100
AcDbPoint
 10
0.235119383648282
 20
3.878038516804217
 30
0.0
  0
ENDBLK
  5
2E4
330
2D8
100
AcDbEntity
  8
0
 48
0.3
100
AcDbBlockEnd
  0
BLOCK
  5
2FD
330
2F2
100
AcDbEntity
  8
0
 48
0.3
100
AcDbBlockBegin
  2
*D19
 70
     1
 10
0.0
 20
0.0
 30
0.0
  3
*D19
  1

  0
LINE
  5
300
330
2F2
100
AcDbEntity
  8
0
 62
     0
 48
0.3
370
    -2
100
AcDbLine
 10
3.702514342246024
 20
5.378038516804217
 30
0.0
 11
5.00233918565771
 21
5.378038516804217
 31
0.0
  0
LINE
  5
301
330
2F2
100
AcDbEntity
  8
0
 62
     0
 48
0.3
370
    -2
100
AcDbLine
 10
4.452514342246025
 20
3.878038516804216
 30
0.0
 11
5.00233918565771
 21
3.878038516804215
 31
0.0
  0
LINE
  5
302
330
2F2
100
AcDbEntity
  8
0
 62
     0
 48
0.3
370
    -2
100
AcDbLine
 10
4.82233918565771
 20
5.253038516804217
 30
0.0
 11
4.82233918565771
 21
4.780538516804216
 31
0.0
  0
LINE
  5
303
330
2F2
100
AcDbEntity
  8
0
 62
     0
 48
0.3
370
    -2
100
AcDbLine
 10
4.82233918565771
 20
4.003038516804216
 30
0.0
 11
4.82233918565771
 21
4.475538516804216
 31
0.0
  0
SOLID
  5
304
330
2F2
100
AcDbEntity
  8
0
 62
     0
 48
0.3
100
AcDbTrace
 10
4.801505852324377
 20
5.253038516804217
 30
0.0
 11
4.843172518991043
 21
5.253038516804217
 31
0.0
 12
4.82233918565771
 22
5.378038516804217
 32
0.0
 13
4.82233918565771
 23
5.378038516804217
 33
0.0
  0
SOLID
  5
305
330
2F2
100
AcDbEntity
  8
0
 62
     0
 48
0.3
100
AcDbTrace
 10
4.801505852324377
 20
4.003038516804216
 30
0.0
 11
4.843172518991043
 21
4.003038516804216
 31
0.0
 12
4.82233918565771
 22
3.878038516804216
 32
0.0
 13
4.82233918565771
 23
3.878038516804216
 33
0.0
  0
MTEXT
  5
306
330
2F2
100
AcDbEntity
  8
0
 62
     0
 48
0.3
100
AcDbMText
 10
4.82233918565771
 20
4.628038516804217
 30
0.0
 40
0.125
 41
0.0
 71
     5
 72
     1
  1
\A1;1.500
 73
     1
 44
1.0
  0
POINT
  5
307
330
2F2
100
AcDbEntity
  8
Defpoints
 62
     0
 48
0.3
100
AcDbPoint
 10
3.640014342246024
 20
5.378038516804217
 30
0.0
  0
POINT
  5
308
330
2F2
100
AcDbEntity
  8
Defpoints
 62
     0
 48
0.3
100
AcDbPoint
 10
4.390014342246025
 20
3.878038516804216
 30
0.0
  0
POINT
  5
309
330
2F2
100
AcDbEntity
  8
Defpoints
 62
     0
 48
0.3
100
AcDbPoint
 10
4.82233918565771
 20
3.878038516804216
 30
0.0
  0
ENDBLK
  5
2FE
330
2F2
100
AcDbEntity
  8
0
 48
0.3
100
AcDbBlockEnd
  0
BLOCK
  5
317
330
30C
100
AcDbEntity
  8
0
 48
0.3
100
AcDbBlockBegin
  2
*D20
 70
     1
 10
0.0
 20
0.0
 30
0.0
  3
*D20
  1

  0
LINE
  5
31A
330
30C
100
AcDbEntity
  8
0
 62
     0
 48
0.3
370
    -2
100
AcDbLine
 10
3.640014342246024
 20
5.440538516804217
 30
0.0
 11
3.640014342246024
 21
5.919132616041345
 31
0.0
  0
LINE
  5
31B
330
30C
100
AcDbEntity
  8
0
 62
     0
 48
0.3
370
    -2
100
AcDbLine
 10
4.390014342246025
 20
3.940538516804216
 30
0.0
 11
4.390014342246025
 21
5.919132616041345
 31
0.0
  0
LINE
  5
31C
330
30C
100
AcDbEntity
  8
0
 62
     0
 48
0.3
370
    -2
100
AcDbLine
 10
3.515014342246024
 20
5.739132616041345
 30
0.0
 11
3.390014342246024
 21
5.739132616041345
 31
0.0
  0
LINE
  5
31D
330
30C
100
AcDbEntity
  8
0
 62
     0
 48
0.3
370
    -2
100
AcDbLine
 10
4.515014342246025
 20
5.739132616041345
 30
0.0
 11
4.640014342246025
 21
5.739132616041345
 31
0.0
  0
SOLID
  5
31E
330
30C
100
AcDbEntity
  8
0
 62
     0
 48
0.3
100
AcDbTrace
 10
3.515014342246024
 20
5.759965949374678
 30
0.0
 11
3.515014342246024
 21
5.718299282708012
 31
0.0
 12
3.640014342246024
 22
5.739132616041345
 32
0.0
 13
3.640014342246024
 23
5.739132616041345
 33
0.0
  0
SOLID
  5
31F
330
30C
100
AcDbEntity
  8
0
 62
     0
 48
0.3
100
AcDbTrace
 10
4.515014342246025
 20
5.759965949374678
 30
0.0
 11
4.515014342246025
 21
5.718299282708012
 31
0.0
 12
4.390014342246025
 22
5.739132616041345
 32
0.0
 13
4.390014342246025
 23
5.739132616041345
 33
0.0
  0
MTEXT
  5
320
330
30C
100
AcDbEntity
  8
0
 62
     0
 48
0.3
100
AcDbMText
 10
4.015014342246025
 20
5.739132616041345
 30
0.0
 40
0.125
 41
0.0
 71
     5
 72
     1
  1
\A1;0.750
 73
     1
 44
1.0
  0
POINT
  5
321
330
30C
100
AcDbEntity
  8
Defpoints
 62
     0
 48
0.3
100
AcDbPoint
 10
3.640014342246024
 20
5.378038516804217
 30
0.0
  0
POINT
  5
322
330
30C
100
AcDbEntity
  8
Defpoints
 62
     0
 48
0.3
100
AcDbPoint
 10
4.390014342246025
 20
3.878038516804216
 30
0.0
  0
POINT
  5
323
330
30C
100
AcDbEntity
  8
Defpoints
 62
     0
 48
0.3
100
AcDbPoint
 10
4.390014342246025
 20
5.739132616041345
 30
0.0
  0
ENDBLK
  5
318
330
30C
100
AcDbEntity
  8
0
 48
0.3
100
AcDbBlockEnd
  0
BLOCK
  5
332
330
326
100
AcDbEntity
  8
0
 48
0.3
100
AcDbBlockBegin
  2
*D21
 70
     1
 10
0.0
 20
0.0
 30
0.0
  3
*D21
  1

  0
LINE
  5
335
330
326
100
AcDbEntity
  8
0
 62
     0
 48
0.3
370
    -2
100
AcDbLine
 10
1.765014342246025
 20
5.303515310282172
 30
0.0
 11
1.647514342246025
 21
5.303515310282172
 31
0.0
  0
LINE
  5
336
330
326
100
AcDbEntity
  8
0
 62
     0
 48
0.3
370
    -2
100
AcDbLine
 10
1.765014342246025
 20
5.053515310282172
 30
0.0
 11
1.647514342246025
 21
5.053515310282172
 31
0.0
  0
LINE
  5
337
330
326
100
AcDbEntity
  8
0
 62
     0
 48
0.3
370
    -2
100
AcDbLine
 10
1.827514342246025
 20
5.428515310282172
 30
0.0
 11
1.827514342246025
 21
5.553515310282172
 31
0.0
  0
LINE
  5
338
330
326
100
AcDbEntity
  8
0
 62
     0
 48
0.3
370
    -2
100
AcDbLine
 10
1.827514342246025
 20
4.928515310282172
 30
0.0
 11
1.827514342246025
 21
4.803515310282172
 31
0.0
  0
LINE
  5
339
330
326
100
AcDbEntity
  8
0
 62
     0
 48
0.3
370
    -2
100
AcDbLine
 10
1.827514342246025
 20
4.803515310282172
 30
0.0
 11
1.702514342246025
 21
4.803515310282172
 31
0.0
  0
SOLID
  5
33A
330
326
100
AcDbEntity
  8
0
 62
     0
 48
0.3
100
AcDbTrace
 10
1.806681008912691
 20
5.428515310282172
 30
0.0
 11
1.848347675579358
 21
5.428515310282172
 31
0.0
 12
1.827514342246025
 22
5.303515310282172
 32
0.0
 13
1.827514342246025
 23
5.303515310282172
 33
0.0
  0
SOLID
  5
33B
330
326
100
AcDbEntity
  8
0
 62
     0
 48
0.3
100
AcDbTrace
 10
1.806681008912691
 20
4.928515310282172
 30
0.0
 11
1.848347675579358
 21
4.928515310282172
 31
0.0
 12
1.827514342246025
 22
5.053515310282172
 32
0.0
 13
1.827514342246025
 23
5.053515310282172
 33
0.0
  0
MTEXT
  5
33C
330
326
100
AcDbEntity
  8
0
 62
     0
 48
0.3
100
AcDbMText
 10
1.383347675579357
 20
4.803515310282172
 30
0.0
 40
0.125
 41
0.0
 71
     5
 72
     1
  1
\A1;0.250
 73
     1
 44
1.0
  0
POINT
  5
33D
330
326
100
AcDbEntity
  8
Defpoints
 62
     0
 48
0.3
100
AcDbPoint
 10
1.827514342246025
 20
5.303515310282172
 30
0.0
  0
POINT
  5
33E
330
326
100
AcDbEntity
  8
Defpoints
 62
     0
 48
0.3
100
AcDbPoint
 10
1.827514342246025
 20
5.053515310282172
 30
0.0
  0
POINT
  5
33F
330
326
100
AcDbEntity
  8
Defpoints
 62
     0
 48
0.3
100
AcDbPoint
 10
1.827514342246025
 20
5.053515310282172
 30
0.0
  0
ENDBLK
  5
333
330
326
100
AcDbEntity
  8
0
 48
0.3
100
AcDbBlockEnd
  0
BLOCK
  5
34D
330
342
100
AcDbEntity
  8
0
 48
0.3
100
AcDbBlockBegin
  2
*D22
 70
     1
 10
0.0
 20
0.0
 30
0.0
  3
*D22
  1

  0
LINE
  5
35B
330
342
100
AcDbEntity
  8
0
 62
     0
 48
0.3
370
    -2
100
AcDbLine
 10
2.515014342246025
 20
3.128515310282173
 30
0.0
 11
5.468074075992196
 21
3.128515310282172
 31
0.0
  0
LINE
  5
35C
330
342
100
AcDbEntity
  8
0
 62
     0
 48
0.3
370
    -2
100
AcDbLine
 10
3.702514342246025
 20
0.878038516804216
 30
0.0
 11
5.468074075992194
 21
0.8780385168042155
 31
0.0
  0
LINE
  5
35D
330
342
100
AcDbEntity
  8
0
 62
     0
 48
0.3
370
    -2
100
AcDbLine
 10
5.288074075992195
 20
3.003515310282172
 30
0.0
 11
5.288074075992194
 21
1.440380271155379
 31
0.0
  0
LINE
  5
35E
330
342
100
AcDbEntity
  8
0
 62
     0
 48
0.3
370
    -2
100
AcDbLine
 10
5.288074075992194
 20
1.003038516804215
 30
0.0
 11
5.288074075992194
 21
1.135380271155379
 31
0.0
  0
SOLID
  5
35F
330
342
100
AcDbEntity
  8
0
 62
     0
 48
0.3
100
AcDbTrace
 10
5.267240742658862
 20
3.003515310282172
 30
0.0
 11
5.308907409325528
 21
3.003515310282172
 31
0.0
 12
5.288074075992195
 22
3.128515310282172
 32
0.0
 13
5.288074075992195
 23
3.128515310282172
 33
0.0
  0
SOLID
  5
360
330
342
100
AcDbEntity
  8
0
 62
     0
 48
0.3
100
AcDbTrace
 10
5.267240742658861
 20
1.003038516804215
 30
0.0
 11
5.308907409325527
 21
1.003038516804215
 31
0.0
 12
5.288074075992194
 22
0.8780385168042155
 32
0.0
 13
5.288074075992194
 23
0.8780385168042155
 33
0.0
  0
MTEXT
  5
361
330
342
100
AcDbEntity
  8
0
 62
     0
 48
0.3
100
AcDbMText
 10
5.288074075992194
 20
1.28788027115538
 30
0.0
 40
0.125
 41
0.0
 71
     5
 72
     1
  1
\A1;2.250
 73
     1
 44
1.0
  0
POINT
  5
362
330
342
100
AcDbEntity
  8
Defpoints
 62
     0
 48
0.3
100
AcDbPoint
 10
2.452514342246025
 20
3.128515310282173
 30
0.0
  0
POINT
  5
363
330
342
100
AcDbEntity
  8
Defpoints
 62
     0
 48
0.3
100
AcDbPoint
 10
3.640014342246025
 20
0.878038516804216
 30
0.0
  0
POINT
  5
364
330
342
100
AcDbEntity
  8
Defpoints
 62
     0
 48
0.3
100
AcDbPoint
 10
5.288074075992194
 20
0.8780385168042155
 30
0.0
  0
ENDBLK
  5
34E
330
342
100
AcDbEntity
  8
0
 48
0.3
100
AcDbBlockEnd
  0
ENDSEC
  0
SECTION
  2
ENTITIES
  0
VIEWPORT
  5
77
330
58
100
AcDbEntity
 67
     1
  8
0
100
AcDbViewport
 10
3.930400040126594
 20
2.492609417267493
 30
0.0
 40
19.05294126905289
 41
7.900400646909002
 68
     1
 69
     1
 12
3.930400040126594
 22
2.492609417267493
 13
0.0
 23
0.0
 14
0.5
 24
0.5
 15
0.5
 25
0.5
 16
0.0
 26
0.0
 36
1.0
 17
0.0
 27
0.0
 37
0.0
 42
50.0
 43
0.0
 44
0.0
 45
7.900400646909002
 50
0.0
 51
0.0
 72
   100
 90
    32800
  1

281
     0
 71
     1
 74
     0
110
0.0
120
0.0
130
0.0
111
1.0
121
0.0
131
0.0
112
0.0
122
1.0
132
0.0
 79
     0
146
0.0
  0
LWPOLYLINE
  5
86
330
58
100
AcDbEntity
 67
     1
  8
0
100
AcDbPolyline
 90
        4
 70
     1
 43
0.0
 10
-1.439262267973589
 20
6.396855050259421
 10
8.966538218833356
 20
6.396855050259421
 10
8.966538218833356
 20
-1.41285528304607
 10
-1.439262267973589
 20
-1.41285528304607
  0
LINE
  5
8A
330
58
100
AcDbEntity
 67
     1
  8
0
100
AcDbLine
 10
8.966538218833356
 20
-1.41285528304607
 30
0.0
 11
8.966538218833356
 21
-0.4128552830460706
 31
0.0
  0
LINE
  5
8B
330
58
100
AcDbEntity
 67
     1
  8
0
100
AcDbLine
 10
8.966538218833356
 20
-0.4128552830460706
 30
0.0
 11
6.466538218833356
 21
-0.4128552830460703
 31
0.0
  0
LINE
  5
8C
330
58
100
AcDbEntity
 67
     1
  8
0
100
AcDbLine
 10
6.466538218833356
 20
-0.4128552830460703
 30
0.0
 11
4.966538218833356
 21
-0.4128552830460701
 31
0.0
  0
LINE
  5
8D
330
58
100
AcDbEntity
 67
     1
  8
0
100
AcDbLine
 10
4.966538218833356
 20
-0.4128552830460701
 30
0.0
 11
4.966538218833356
 21
-1.41285528304607
 31
0.0
  0
LINE
  5
8E
330
58
100
AcDbEntity
 67
     1
  8
0
100
AcDbLine
 10
6.466538218833356
 20
-0.4128552830460703
 30
0.0
 11
6.466538218833356
 21
-1.40425062323316
 31
0.0
  0
MTEXT
  5
8F
330
58
100
AcDbEntity
 67
     1
  8
0
100
AcDbMText
 10
5.02064872125895
 20
-0.5532836662080878
 30
0.0
 40
0.1
 41
1.5
 71
     1
 72
     5
  1
  Tolerances\P.XXXX = +/- .001\P.XXX  = +/- .005\P.XX   = +/- .015
 73
     1
 44
1.0
  0
MTEXT
  5
AA
330
58
100
AcDbEntity
 67
     1
  8
0
 48
0.3
100
AcDbMText
 10
6.705178674448355
 20
-0.4795851818700779
 30
0.0
 40
0.1
 41
2.5
 71
     1
 72
     5
  1
G0704 Belt Drive \PMotor Mount \Pfor Non CNC\PDaniel E. Kemp\P{\fArial|b0|i0|c0|p32;\H1.625x;©\fMS Shell Dlg|b0|i0|c0|p32;\H0.6538x; }08-22-2010
 73
     1
 44
1.0
  0
MTEXT
  5
AC
330
58
100
AcDbEntity
 67
     1
  8
0
 48
0.3
100
AcDbMText
 10
-0.8330378939457148
 20
-0.9104262006358538
 30
0.0
 40
0.1625
 41
9.997099999999999
 71
     1
 72
     5
  1
{\fArial|b0|i0|c0|p32;© Daniel E. Kemp 2010}
 73
     1
 44
1.0
  0
CIRCLE
  5
C9
330
58
100
AcDbEntity
 67
     1
  8
0
 48
0.3
100
AcDbCircle
 10
0.9975143422460259
 20
3.128515310282173
 30
0.0
 40
0.172
  0
CIRCLE
  5
CA
102
{ACAD_REACTORS
330
180
102
}
330
58
100
AcDbEntity
 67
     1
  8
0
100
AcDbCircle
 10
0.9975143422460259
 20
3.128515310282173
 30
0.0
 40
0.1015
  0
CIRCLE
  5
CC
102
{ACAD_REACTORS
330
28A
102
}
330
58
100
AcDbEntity
 67
     1
  8
0
 48
0.3
100
AcDbCircle
 10
2.452514342246027
 20
4.583515310282173
 30
0.0
 40
0.172
  0
CIRCLE
  5
CD
102
{ACAD_REACTORS
330
2A0
102
}
330
58
100
AcDbEntity
 67
     1
  8
0
100
AcDbCircle
 10
2.452514342246027
 20
4.583515310282173
 30
0.0
 40
0.1015
  0
CIRCLE
  5
D2
102
{ACAD_REACTORS
330
19A
102
}
330
58
100
AcDbEntity
 67
     1
  8
0
 48
0.3
100
AcDbCircle
 10
2.452514342246025
 20
1.673515310282173
 30
0.0
 40
0.172
  0
CIRCLE
  5
D3
330
58
100
AcDbEntity
 67
     1
  8
0
100
AcDbCircle
 10
2.452514342246025
 20
1.673515310282173
 30
0.0
 40
0.1015
  0
CIRCLE
  5
D4
330
58
100
AcDbEntity
 67
     1
  8
0
 48
0.3
100
AcDbCircle
 10
3.907514342246026
 20
3.128515310282172
 30
0.0
 40
0.172
  0
CIRCLE
  5
D5
330
58
100
AcDbEntity
 67
     1
  8
0
100
AcDbCircle
 10
3.907514342246026
 20
3.128515310282172
 30
0.0
 40
0.1015
  0
ARC
  5
DB
102
{ACAD_REACTORS
330
1B4
330
1CE
330
1F4
330
2D6
330
340
102
}
330
58
100
AcDbEntity
 67
     1
  8
0
 48
0.3
100
AcDbCircle
 10
1.827514342246025
 20
5.178515310282172
 30
0.0
 40
0.125
100
AcDbArc
 50
90.0
 51
270.0
  0
ARC
  5
DC
102
{ACAD_REACTORS
330
1B4
102
}
330
58
100
AcDbEntity
 67
     1
  8
0
 48
0.3
100
AcDbCircle
 10
3.077514342246025
 20
5.178515310282172
 30
0.0
 40
0.125
100
AcDbArc
 50
270.0
 51
90.0
  0
ARC
  5
DD
102
{ACAD_REACTORS
330
1CE
102
}
330
58
100
AcDbEntity
 67
     1
  8
0
 48
0.3
100
AcDbCircle
 10
1.827514342246024
 20
1.078515310282172
 30
0.0
 40
0.125
100
AcDbArc
 50
90.0
 51
270.0
  0
ARC
  5
DE
330
58
100
AcDbEntity
 67
     1
  8
0
 48
0.3
100
AcDbCircle
 10
3.077514342246024
 20
1.078515310282172
 30
0.0
 40
0.125
100
AcDbArc
 50
270.0
 51
90.0
  0
LINE
  5
DF
330
58
100
AcDbEntity
 67
     1
  8
0
 48
0.3
100
AcDbLine
 10
1.827514342246025
 20
5.303515310282172
 30
0.0
 11
3.077514342246025
 21
5.303515310282172
 31
0.0
  0
LINE
  5
E0
330
58
100
AcDbEntity
 67
     1
  8
0
 48
0.3
100
AcDbLine
 10
1.827514342246025
 20
5.053515310282172
 30
0.0
 11
3.077514342246025
 21
5.053515310282172
 31
0.0
  0
LINE
  5
E1
330
58
100
AcDbEntity
 67
     1
  8
0
 48
0.3
100
AcDbLine
 10
1.827514342246024
 20
1.203515310282172
 30
0.0
 11
3.077514342246024
 21
1.203515310282172
 31
0.0
  0
LINE
  5
E2
330
58
100
AcDbEntity
 67
     1
  8
0
 48
0.3
100
AcDbLine
 10
1.827514342246024
 20
0.9535153102821725
 30
0.0
 11
3.077514342246024
 21
0.9535153102821725
 31
0.0
  0
LINE
  5
EB
330
58
100
AcDbEntity
 67
     1
  8
0
 48
0.3
100
AcDbLine
 10
2.452514342246025
 20
4.003515310282172
 30
0.0
 11
3.140014342246025
 21
4.003515310282172
 31
0.0
  0
LINE
  5
EC
330
58
100
AcDbEntity
 67
     1
  8
0
 48
0.3
100
AcDbLine
 10
3.327514342246025
 20
3.816015310282172
 30
0.0
 11
3.327514342246025
 21
2.441015310282172
 31
0.0
  0
LINE
  5
ED
330
58
100
AcDbEntity
 67
     1
  8
0
 48
0.3
100
AcDbLine
 10
3.140014342246025
 20
2.253515310282172
 30
0.0
 11
1.765014342246024
 21
2.253515310282173
 31
0.0
  0
LINE
  5
EE
330
58
100
AcDbEntity
 67
     1
  8
0
 48
0.3
100
AcDbLine
 10
1.577514342246024
 20
2.441015310282173
 30
0.0
 11
1.577514342246024
 21
3.816015310282172
 31
0.0
  0
LINE
  5
EF
102
{ACAD_REACTORS
330
274
102
}
330
58
100
AcDbEntity
 67
     1
  8
0
 48
0.3
100
AcDbLine
 10
1.765014342246024
 20
4.003515310282172
 30
0.0
 11
2.452514342246025
 21
4.003515310282172
 31
0.0
  0
ARC
  5
F1
330
58
100
AcDbEntity
 67
     1
  8
0
 48
0.3
100
AcDbCircle
 10
1.765014342246024
 20
3.816015310282172
 30
0.0
 40
0.1875
100
AcDbArc
 50
90.0
 51
180.0
  0
ARC
  5
F2
330
58
100
AcDbEntity
 67
     1
  8
0
 48
0.3
100
AcDbCircle
 10
3.140014342246025
 20
3.816015310282172
 30
0.0
 40
0.1875
100
AcDbArc
 50
0.0
 51
90.0
  0
ARC
  5
F3
330
58
100
AcDbEntity
 67
     1
  8
0
 48
0.3
100
AcDbCircle
 10
3.140014342246025
 20
2.441015310282172
 30
0.0
 40
0.1875
100
AcDbArc
 50
270.0
 51
0.0
  0
ARC
  5
F4
330
58
100
AcDbEntity
 67
     1
  8
0
 48
0.3
100
AcDbCircle
 10
1.765014342246024
 20
2.441015310282173
 30
0.0
 40
0.1875
100
AcDbArc
 50
180.0
 51
270.0
  0
LINE
  5
FA
102
{ACAD_REACTORS
330
14B
330
1F4
102
}
330
58
100
AcDbEntity
 67
     1
  8
0
 48
0.3
100
AcDbLine
 10
0.5150143422460248
 20
3.878038516804217
 30
0.0
 11
1.265014342246025
 21
5.378038516804217
 31
0.0
  0
LINE
  5
FF
102
{ACAD_REACTORS
330
30A
330
324
102
}
330
58
100
AcDbEntity
 67
     1
  8
0
 48
0.3
100
AcDbLine
 10
4.390014342246025
 20
3.878038516804216
 30
0.0
 11
3.640014342246025
 21
5.378038516804216
 31
0.0
  0
LINE
  5
101
102
{ACAD_REACTORS
330
165
330
20E
330
35A
102
}
330
58
100
AcDbEntity
 67
     1
  8
0
 48
0.3
100
AcDbLine
 10
4.390014342246025
 20
2.378038516804215
 30
0.0
 11
3.640014342246025
 21
0.878038516804216
 31
0.0
  0
LINE
  5
103
330
58
100
AcDbEntity
 67
     1
  8
0
 48
0.3
100
AcDbLine
 10
0.5150143422460253
 20
2.378038516804216
 30
0.0
 11
1.265014342246025
 21
0.8780385168042164
 31
0.0
  0
LINE
  5
104
102
{ACAD_REACTORS
330
30A
330
324
102
}
330
58
100
AcDbEntity
 67
     1
  8
0
 48
0.3
100
AcDbLine
 10
1.265014342246025
 20
5.378038516804217
 30
0.0
 11
3.640014342246024
 21
5.378038516804217
 31
0.0
  0
LINE
  5
105
330
58
100
AcDbEntity
 67
     1
  8
0
 48
0.3
100
AcDbLine
 10
4.390014342246025
 20
3.878038516804216
 30
0.0
 11
4.390014342246025
 21
2.378038516804215
 31
0.0
  0
LINE
  5
106
102
{ACAD_REACTORS
330
165
330
2D6
102
}
330
58
100
AcDbEntity
 67
     1
  8
0
 48
0.3
100
AcDbLine
 10
0.5150143422460248
 20
3.878038516804217
 30
0.0
 11
0.5150143422460253
 21
2.378038516804216
 31
0.0
  0
LINE
  5
107
330
58
100
AcDbEntity
 67
     1
  8
0
 48
0.3
100
AcDbLine
 10
1.265014342246025
 20
0.8780385168042164
 30
0.0
 11
3.640014342246025
 21
0.878038516804216
 31
0.0
  0
LINE
  5
108
330
58
100
AcDbEntity
 67
     1
  8
0
 48
0.3
100
AcDbLine
 10
6.367327246636974
 20
5.378038516804217
 30
0.0
 11
6.742327246636974
 21
5.378038516804217
 31
0.0
  0
LINE
  5
109
102
{ACAD_REACTORS
330
232
102
}
330
58
100
AcDbEntity
 67
     1
  8
0
 48
0.3
100
AcDbLine
 10
6.742327246636974
 20
5.378038516804217
 30
0.0
 11
6.742327246636974
 21
0.8780385168042164
 31
0.0
  0
LINE
  5
10A
330
58
100
AcDbEntity
 67
     1
  8
0
 48
0.3
100
AcDbLine
 10
6.742327246636974
 20
0.8780385168042164
 30
0.0
 11
6.367327246636973
 21
0.8780385168042165
 31
0.0
  0
LINE
  5
10B
102
{ACAD_REACTORS
330
232
102
}
330
58
100
AcDbEntity
 67
     1
  8
0
 48
0.3
100
AcDbLine
 10
6.367327246636973
 20
0.8780385168042165
 30
0.0
 11
6.367327246636974
 21
5.378038516804217
 31
0.0
  0
LINE
  5
10E
330
58
100
AcDbEntity
 67
     1
  8
0
  6
HIDDENX2
 48
0.3
100
AcDbLine
 10
6.367327246636974
 20
5.303515310282172
 30
0.0
 11
6.742327246636974
 21
5.303515310282172
 31
0.0
  0
LINE
  5
110
330
58
100
AcDbEntity
 67
     1
  8
0
  6
HIDDENX2
 48
0.3
100
AcDbLine
 10
6.367327246636974
 20
5.053515310282172
 30
0.0
 11
6.742327246636974
 21
5.053515310282172
 31
0.0
  0
LINE
  5
112
330
58
100
AcDbEntity
 67
     1
  8
0
  6
HIDDENX2
 48
0.3
100
AcDbLine
 10
6.367327246636974
 20
4.003515310282172
 30
0.0
 11
6.742327246636974
 21
4.003515310282172
 31
0.0
  0
LINE
  5
114
330
58
100
AcDbEntity
 67
     1
  8
0
  6
HIDDENX2
 48
0.3
100
AcDbLine
 10
6.367327246636973
 20
2.253515310282172
 30
0.0
 11
6.742327246636974
 21
2.253515310282172
 31
0.0
  0
LINE
  5
116
330
58
100
AcDbEntity
 67
     1
  8
0
  6
HIDDENX2
 48
0.3
100
AcDbLine
 10
6.367327246636973
 20
1.203515310282172
 30
0.0
 11
6.742327246636974
 21
1.203515310282172
 31
0.0
  0
LINE
  5
118
330
58
100
AcDbEntity
 67
     1
  8
0
  6
HIDDENX2
 48
0.3
100
AcDbLine
 10
6.367327246636973
 20
0.9535153102821725
 30
0.0
 11
6.742327246636974
 21
0.9535153102821727
 31
0.0
  0
LINE
  5
11A
330
58
100
AcDbEntity
 67
     1
  8
0
  6
HIDDENX2
 48
0.3
100
AcDbLine
 10
6.742327246636974
 20
3.300515310282172
 30
0.0
 11
6.554327246636974
 21
3.300515310282172
 31
0.0
  0
LINE
  5
11B
330
58
100
AcDbEntity
 67
     1
  8
0
  6
HIDDENX2
 48
0.3
100
AcDbLine
 10
6.554327246636974
 20
3.300515310282172
 30
0.0
 11
6.554327246636974
 21
2.956515310282172
 31
0.0
  0
LINE
  5
11C
330
58
100
AcDbEntity
 67
     1
  8
0
  6
HIDDENX2
 48
0.3
100
AcDbLine
 10
6.554327246636974
 20
2.956515310282172
 30
0.0
 11
6.742327246636974
 21
2.956515310282172
 31
0.0
  0
LINE
  5
11E
102
{ACAD_REACTORS
330
24C
102
}
330
58
100
AcDbEntity
 67
     1
  8
0
  6
HIDDENX2
 48
0.3
100
AcDbLine
 10
6.742327246636974
 20
1.845515310282173
 30
0.0
 11
6.554327246636974
 21
1.845515310282173
 31
0.0
  0
LINE
  5
11F
102
{ACAD_REACTORS
330
24C
102
}
330
58
100
AcDbEntity
 67
     1
  8
0
  6
HIDDENX2
 48
0.3
100
AcDbLine
 10
6.554327246636974
 20
1.845515310282173
 30
0.0
 11
6.554327246636974
 21
1.501515310282173
 31
0.0
  0
LINE
  5
120
330
58
100
AcDbEntity
 67
     1
  8
0
  6
HIDDENX2
 48
0.3
100
AcDbLine
 10
6.554327246636974
 20
1.501515310282173
 30
0.0
 11
6.742327246636974
 21
1.501515310282173
 31
0.0
  0
LINE
  5
122
330
58
100
AcDbEntity
 67
     1
  8
0
  6
HIDDENX2
 48
0.3
100
AcDbLine
 10
6.367327246636973
 20
1.775015310282173
 30
0.0
 11
6.554327246636974
 21
1.775015310282173
 31
0.0
  0
LINE
  5
124
330
58
100
AcDbEntity
 67
     1
  8
0
  6
HIDDENX2
 48
0.3
100
AcDbLine
 10
6.367327246636973
 20
1.572015310282173
 30
0.0
 11
6.554327246636974
 21
1.572015310282173
 31
0.0
  0
LINE
  5
126
330
58
100
AcDbEntity
 67
     1
  8
0
  6
HIDDENX2
 48
0.3
100
AcDbLine
 10
6.367327246636974
 20
3.230015310282172
 30
0.0
 11
6.554327246636974
 21
3.230015310282172
 31
0.0
  0
LINE
  5
128
330
58
100
AcDbEntity
 67
     1
  8
0
  6
HIDDENX2
 48
0.3
100
AcDbLine
 10
6.367327246636973
 20
3.027015310282172
 30
0.0
 11
6.554327246636974
 21
3.027015310282172
 31
0.0
  0
LINE
  5
12A
330
58
100
AcDbEntity
 67
     1
  8
0
  6
HIDDENX2
 48
0.3
100
AcDbLine
 10
6.742327246636974
 20
4.755515310282173
 30
0.0
 11
6.554327246636974
 21
4.755515310282173
 31
0.0
  0
LINE
  5
12B
330
58
100
AcDbEntity
 67
     1
  8
0
  6
HIDDENX2
 48
0.3
100
AcDbLine
 10
6.554327246636974
 20
4.755515310282173
 30
0.0
 11
6.554327246636974
 21
4.411515310282172
 31
0.0
  0
LINE
  5
12C
330
58
100
AcDbEntity
 67
     1
  8
0
  6
HIDDENX2
 48
0.3
100
AcDbLine
 10
6.554327246636974
 20
4.411515310282172
 30
0.0
 11
6.742327246636974
 21
4.411515310282172
 31
0.0
  0
LINE
  5
12E
330
58
100
AcDbEntity
 67
     1
  8
0
  6
HIDDENX2
 48
0.3
100
AcDbLine
 10
6.367327246636974
 20
4.685015310282173
 30
0.0
 11
6.554327246636974
 21
4.685015310282173
 31
0.0
  0
LINE
  5
130
330
58
100
AcDbEntity
 67
     1
  8
0
  6
HIDDENX2
 48
0.3
100
AcDbLine
 10
6.367327246636974
 20
4.482015310282173
 30
0.0
 11
6.554327246636974
 21
4.482015310282173
 31
0.0
  0
DIMENSION
  5
131
102
{ACAD_XDICTIONARY
360
140
102
}
102
{ACAD_REACTORS
330
14B
102
}
330
58
100
AcDbEntity
 67
     1
  8
0
 48
0.3
100
AcDbDimension
  2
*D2
 10
-0.8758228096895383
 20
0.8780385168042183
 30
0.0
 11
-0.8758228096895383
 21
3.128038516804217
 31
0.0
 70
    32
 71
     5
 42
4.499999999999999
  3
Standard
100
AcDbAlignedDimension
 13
1.265014342246025
 23
5.378038516804217
 33
0.0
 14
1.265014342246024
 24
0.8780385168042176
 34
0.0
 50
90.0
100
AcDbRotatedDimension
  0
DIMENSION
  5
14C
102
{ACAD_XDICTIONARY
360
15A
102
}
102
{ACAD_REACTORS
330
165
102
}
330
58
100
AcDbEntity
 67
     1
  8
0
 48
0.3
100
AcDbDimension
  2
*D3
 10
4.390014342246025
 20
-0.1759785368896622
 30
0.0
 11
2.452514342246025
 21
-0.1759785368896622
 31
0.0
 70
    32
 71
     5
 42
3.875
  3
Standard
100
AcDbAlignedDimension
 13
0.5150143422460253
 23
2.378038516804216
 33
0.0
 14
4.390014342246025
 24
2.378038516804215
 34
0.0
100
AcDbRotatedDimension
  0
DIMENSION
  5
167
102
{ACAD_XDICTIONARY
360
175
102
}
102
{ACAD_REACTORS
330
180
102
}
330
58
100
AcDbEntity
 67
     1
  8
0
 48
0.3
100
AcDbDimension
  2
*D4
 10
0.9975143422460257
 20
0.512363948705616
 30
0.0
 11
1.725014342246025
 21
0.512363948705616
 31
0.0
 70
    32
 71
     5
 42
1.454999999999999
  3
Standard
100
AcDbAlignedDimension
 13
2.452514342246025
 23
3.128515310282173
 33
0.0
 14
0.9975143422460259
 24
3.128515310282173
 34
0.0
100
AcDbRotatedDimension
  0
DIMENSION
  5
181
102
{ACAD_XDICTIONARY
360
18F
102
}
102
{ACAD_REACTORS
330
19A
102
}
330
58
100
AcDbEntity
 67
     1
  8
0
 48
0.3
100
AcDbDimension
  2
*D5
 10
4.819201205492048
 20
1.673515310282172
 30
0.0
 11
4.819201205492048
 21
2.401015310282172
 31
0.0
 70
    32
 71
     5
 42
1.454999999999999
  3
Standard
100
AcDbAlignedDimension
 13
2.452514342246025
 23
3.128515310282173
 33
0.0
 14
2.452514342246025
 24
1.673515310282173
 34
0.0
 50
90.0
100
AcDbRotatedDimension
  0
DIMENSION
  5
19B
102
{ACAD_XDICTIONARY
360
1A9
102
}
102
{ACAD_REACTORS
330
1B4
102
}
330
58
100
AcDbEntity
 67
     1
  8
0
 48
0.3
100
AcDbDimension
  2
*D6
 10
3.077514342246025
 20
5.746159017195026
 30
0.0
 11
2.452514342246025
 21
5.746159017195026
 31
0.0
 70
    32
 71
     5
 42
1.25
  3
Standard
100
AcDbAlignedDimension
 13
1.827514342246025
 23
5.178515310282172
 33
0.0
 14
3.077514342246025
 24
5.178515310282172
 34
0.0
100
AcDbRotatedDimension
  0
DIMENSION
  5
1B5
102
{ACAD_XDICTIONARY
360
1C3
102
}
102
{ACAD_REACTORS
330
1CE
102
}
330
58
100
AcDbEntity
 67
     1
  8
0
 48
0.3
100
AcDbDimension
  2
*D7
 10
-0.2519201406650213
 20
1.078515310282173
 30
0.0
 11
-0.2519201406650213
 21
3.642251329796778
 31
0.0
 70
   160
 71
     5
 42
4.099999999999999
  3
Standard
100
AcDbAlignedDimension
 13
1.827514342246025
 23
5.178515310282172
 33
0.0
 14
1.827514342246024
 24
1.078515310282172
 34
0.0
 50
90.0
100
AcDbRotatedDimension
  0
DIMENSION
  5
1D9
102
{ACAD_XDICTIONARY
360
1E8
102
}
102
{ACAD_REACTORS
330
1F4
102
}
330
58
100
AcDbEntity
 67
     1
  8
0
 48
0.3
100
AcDbDimension
  2
*D8
 10
-0.4319201406650203
 20
5.378038516804217
 30
0.0
 11
0.0018298593349788
 21
5.628038516804217
 31
0.0
 70
    32
 71
     5
 42
0.1995232065220449
  3
Standard
100
AcDbAlignedDimension
 13
1.827514342246025
 23
5.178515310282172
 33
0.0
 14
1.265014342246025
 24
5.378038516804217
 34
0.0
 50
90.0
100
AcDbRotatedDimension
  0
DIMENSION
  5
1F5
102
{ACAD_XDICTIONARY
360
203
102
}
102
{ACAD_REACTORS
330
20E
102
}
330
58
100
AcDbEntity
 67
     1
  8
0
 48
0.3
100
AcDbDimension
  2
*D9
 10
4.390014342246025
 20
0.5422597608937494
 30
0.0
 11
3.421264342246025
 21
0.5422597608937494
 31
0.0
 70
   160
 71
     5
 42
1.9375
  3
Standard
100
AcDbAlignedDimension
 13
2.452514342246024
 23
3.128515310282172
 33
0.0
 14
4.390014342246025
 24
2.378038516804215
 34
0.0
100
AcDbRotatedDimension
  0
DIMENSION
  5
219
102
{ACAD_XDICTIONARY
360
227
102
}
102
{ACAD_REACTORS
330
232
102
}
330
58
100
AcDbEntity
 67
     1
  8
0
 48
0.3
100
AcDbDimension
  2
*D10
 10
6.742327246636974
 20
0.3824930888963323
 30
0.0
 11
7.321910579970307
 21
0.3824930888963323
 31
0.0
 70
    32
 71
     5
 42
0.3750000000000009
  3
Standard
100
AcDbAlignedDimension
 13
6.367327246636973
 23
0.8780385168042165
 33
0.0
 14
6.742327246636974
 24
0.8780385168042164
 34
0.0
100
AcDbRotatedDimension
  0
DIMENSION
  5
233
102
{ACAD_XDICTIONARY
360
241
102
}
102
{ACAD_REACTORS
330
24C
102
}
330
58
100
AcDbEntity
 67
     1
  8
0
 48
0.3
100
AcDbDimension
  2
*D11
 10
6.742327246636974
 20
1.99289157488625
 30
0.0
 11
7.301077246636974
 21
1.99289157488625
 31
0.0
 70
    32
 71
     5
 42
0.1879999999999997
  3
Standard
100
AcDbAlignedDimension
 13
6.554327246636974
 23
1.845515310282173
 33
0.0
 14
6.742327246636974
 24
1.845515310282173
 34
0.0
100
AcDbRotatedDimension
  0
DIMENSION
  5
24D
330
58
100
AcDbEntity
 67
     1
  8
0
 48
0.3
100
AcDbDimension
  2
*D12
 10
1.577514342246024
 20
3.395496707136963
 30
0.0
 11
2.015014342246025
 21
3.395496707136963
 31
0.0
 70
    32
 71
     5
 42
0.8750000000000001
  3
Standard
100
AcDbAlignedDimension
 13
2.452514342246025
 23
3.128515310282173
 33
0.0
 14
1.577514342246024
 24
3.128515310282173
 34
0.0
100
AcDbRotatedDimension
  0
DIMENSION
  5
25B
102
{ACAD_XDICTIONARY
360
269
102
}
102
{ACAD_REACTORS
330
274
102
}
330
58
100
AcDbEntity
 67
     1
  8
0
 48
0.3
100
AcDbDimension
  2
*D13
 10
2.857412030351603
 20
4.003515310282172
 30
0.0
 11
2.857412030351603
 21
3.566015310282173
 31
0.0
 70
    32
 71
     5
 42
0.875
  3
Standard
100
AcDbAlignedDimension
 13
2.452514342246025
 23
3.128515310282173
 33
0.0
 14
2.452514342246025
 24
4.003515310282172
 34
0.0
 50
90.0
100
AcDbRotatedDimension
  0
DIMENSION
  5
275
102
{ACAD_XDICTIONARY
360
281
102
}
102
{ACAD_REACTORS
330
28A
102
}
330
58
100
AcDbEntity
 67
     1
  8
0
 48
0.3
100
AcDbDimension
  2
*D14
 10
2.317997421312614
 20
4.476327633832902
 30
0.0
 11
3.299633376939248
 21
4.84649902808213
 31
0.0
 70
    35
 71
     5
 42
0.3439999999999994
  3
Standard
100
AcDbDiametricDimension
 15
2.587031263179441
 25
4.690702986731444
 35
0.0
 40
0.0
1001
ACAD
1000
DSTYLE
1002
{
1070
   288
1070
     1
1002
}
  0
DIMENSION
  5
28B
102
{ACAD_XDICTIONARY
360
297
102
}
102
{ACAD_REACTORS
330
2A0
102
}
330
58
100
AcDbEntity
 67
     1
  8
0
 48
0.3
100
AcDbDimension
  2
*D15
 10
2.366018512894939
 20
4.63662577539845
 30
0.0
 11
3.258720752921633
 21
4.399590891677521
 31
0.0
 70
    35
 71
     5
 42
0.2030000000000003
  3
Standard
100
AcDbDiametricDimension
 15
2.539010171597115
 25
4.530404845165892
 35
0.0
 40
0.0
1001
ACAD
1000
DSTYLE
1002
{
1070
   288
1070
     1
1002
}
  0
DIMENSION
  5
2BD
102
{ACAD_XDICTIONARY
360
2CB
102
}
102
{ACAD_REACTORS
330
2D6
102
}
330
58
100
AcDbEntity
 67
     1
  8
0
 48
0.3
100
AcDbDimension
  2
*D17
 10
1.827514342246025
 20
5.752185733642949
 30
0.0
 11
1.171264342246025
 21
5.752185733642949
 31
0.0
 70
    32
 71
     5
 42
1.3125
  3
Standard
100
AcDbAlignedDimension
 13
0.5150143422460248
 23
3.878038516804217
 33
0.0
 14
1.827514342246025
 24
5.178515310282172
 34
0.0
100
AcDbRotatedDimension
  0
DIMENSION
  5
2F1
102
{ACAD_XDICTIONARY
360
2FF
102
}
102
{ACAD_REACTORS
330
30A
102
}
330
58
100
AcDbEntity
 67
     1
  8
0
 48
0.3
100
AcDbDimension
  2
*D19
 10
4.82233918565771
 20
3.878038516804216
 30
0.0
 11
4.82233918565771
 21
4.628038516804217
 31
0.0
 70
    32
 71
     5
 42
1.5
  3
Standard
100
AcDbAlignedDimension
 13
3.640014342246024
 23
5.378038516804217
 33
0.0
 14
4.390014342246025
 24
3.878038516804216
 34
0.0
 50
90.0
100
AcDbRotatedDimension
  0
DIMENSION
  5
30B
102
{ACAD_XDICTIONARY
360
319
102
}
102
{ACAD_REACTORS
330
324
102
}
330
58
100
AcDbEntity
 67
     1
  8
0
 48
0.3
100
AcDbDimension
  2
*D20
 10
4.390014342246025
 20
5.739132616041345
 30
0.0
 11
4.015014342246025
 21
5.739132616041345
 31
0.0
 70
    32
 71
     5
 42
0.7500000000000005
  3
Standard
100
AcDbAlignedDimension
 13
3.640014342246024
 23
5.378038516804217
 33
0.0
 14
4.390014342246025
 24
3.878038516804216
 34
0.0
100
AcDbRotatedDimension
  0
DIMENSION
  5
325
102
{ACAD_XDICTIONARY
360
334
102
}
102
{ACAD_REACTORS
330
340
102
}
330
58
100
AcDbEntity
 67
     1
  8
0
 48
0.3
100
AcDbDimension
  2
*D21
 10
1.827514342246025
 20
5.053515310282172
 30
0.0
 11
1.383347675579357
 21
4.803515310282172
 31
0.0
 70
    32
 71
     5
 42
0.25
  3
Standard
100
AcDbAlignedDimension
 13
1.827514342246025
 23
5.303515310282172
 33
0.0
 14
1.827514342246025
 24
5.053515310282172
 34
0.0
 50
90.0
100
AcDbRotatedDimension
  0
DIMENSION
  5
341
102
{ACAD_XDICTIONARY
360
34F
102
}
102
{ACAD_REACTORS
330
35A
102
}
330
58
100
AcDbEntity
 67
     1
  8
0
 48
0.3
100
AcDbDimension
  2
*D22
 10
5.288074075992194
 20
0.8780385168042155
 30
0.0
 11
5.288074075992194
 21
1.28788027115538
 31
0.0
 70
   160
 71
     5
 42
2.250476793477956
  3
Standard
100
AcDbAlignedDimension
 13
2.452514342246025
 23
3.128515310282173
 33
0.0
 14
3.640014342246025
 24
0.878038516804216
 34
0.0
 50
90.0
100
AcDbRotatedDimension
  0
ENDSEC
  0
SECTION
  2
OBJECTS
  0
DICTIONARY
  5
C
330
0
100
AcDbDictionary
281
     1
  3
ACAD_GROUP
350
D
  3
ACAD_LAYOUT
350
1A
  3
ACAD_MLINESTYLE
350
17
  3
ACAD_PLOTSETTINGS
350
19
  3
ACAD_PLOTSTYLENAME
350
E
  3
AcDbVariableDictionary
350
66
  0
DICTIONARY
  5
140
330
131
100
AcDbDictionary
280
     1
281
     1
  3
ACAD_DIMASSOC
360
14B
  0
DICTIONARY
  5
15A
330
14C
100
AcDbDictionary
280
     1
281
     1
  3
ACAD_DIMASSOC
360
165
  0
DICTIONARY
  5
175
330
167
100
AcDbDictionary
280
     1
281
     1
  3
ACAD_DIMASSOC
360
180
  0
DICTIONARY
  5
18F
330
181
100
AcDbDictionary
280
     1
281
     1
  3
ACAD_DIMASSOC
360
19A
  0
DICTIONARY
  5
1A9
330
19B
100
AcDbDictionary
280
     1
281
     1
  3
ACAD_DIMASSOC
360
1B4
  0
DICTIONARY
  5
1C3
330
1B5
100
AcDbDictionary
280
     1
281
     1
  3
ACAD_DIMASSOC
360
1CE
  0
DICTIONARY
  5
1E8
330
1D9
100
AcDbDictionary
280
     1
281
     1
  3
ACAD_DIMASSOC
360
1F4
  0
DICTIONARY
  5
203
330
1F5
100
AcDbDictionary
280
     1
281
     1
  3
ACAD_DIMASSOC
360
20E
  0
DICTIONARY
  5
227
330
219
100
AcDbDictionary
280
     1
281
     1
  3
ACAD_DIMASSOC
360
232
  0
DICTIONARY
  5
241
330
233
100
AcDbDictionary
280
     1
281
     1
  3
ACAD_DIMASSOC
360
24C
  0
DICTIONARY
  5
269
330
25B
100
AcDbDictionary
280
     1
281
     1
  3
ACAD_DIMASSOC
360
274
  0
DICTIONARY
  5
281
330
275
100
AcDbDictionary
280
     1
281
     1
  3
ACAD_DIMASSOC
360
28A
  0
DICTIONARY
  5
297
330
28B
100
AcDbDictionary
280
     1
281
     1
  3
ACAD_DIMASSOC
360
2A0
  0
DICTIONARY
  5
2CB
330
2BD
100
AcDbDictionary
280
     1
281
     1
  3
ACAD_DIMASSOC
360
2D6
  0
DICTIONARY
  5
2FF
330
2F1
100
AcDbDictionary
280
     1
281
     1
  3
ACAD_DIMASSOC
360
30A
  0
DICTIONARY
  5
319
330
30B
100
AcDbDictionary
280
     1
281
     1
  3
ACAD_DIMASSOC
360
324
  0
DICTIONARY
  5
334
330
325
100
AcDbDictionary
280
     1
281
     1
  3
ACAD_DIMASSOC
360
340
  0
DICTIONARY
  5
34F
330
341
100
AcDbDictionary
280
     1
281
     1
  3
ACAD_DIMASSOC
360
35A
  0
DICTIONARY
  5
D
102
{ACAD_REACTORS
330
C
102
}
330
C
100
AcDbDictionary
281
     1
  0
DICTIONARY
  5
1A
102
{ACAD_REACTORS
330
C
102
}
330
C
100
AcDbDictionary
281
     1
  3
Layout1
350
59
  3
Layout2
350
5E
  3
Model
350
22
  0
DICTIONARY
  5
17
102
{ACAD_REACTORS
330
C
102
}
330
C
100
AcDbDictionary
281
     1
  3
Standard
350
18
  0
DICTIONARY
  5
19
102
{ACAD_REACTORS
330
C
102
}
330
C
100
AcDbDictionary
281
     1
  0
ACDBDICTIONARYWDFLT
  5
E
102
{ACAD_REACTORS
330
C
102
}
330
C
100
AcDbDictionary
281
     1
  3
Normal
350
F
100
AcDbDictionaryWithDefault
340
F
  0
DICTIONARY
  5
66
102
{ACAD_REACTORS
330
C
102
}
330
C
100
AcDbDictionary
281
     1
  3
DIMASSOC
350
67
  3
HIDETEXT
350
6B
  0
DIMASSOC
  5
14B
102
{ACAD_REACTORS
330
140
102
}
330
140
100
AcDbDimAssoc
330
131
 90
        1
 70
     0
 71
     0
  1
AcDbOsnapPointRef
 72
     1
331
FA
 73
     2
 91
        0
 40
1.0
 10
1.265014342246025
 20
5.378038516804217
 30
0.0
 75
     0
  0
DIMASSOC
  5
165
102
{ACAD_REACTORS
330
15A
102
}
330
15A
100
AcDbDimAssoc
330
14C
 90
        3
 70
     0
 71
     0
  1
AcDbOsnapPointRef
 72
     1
331
106
 73
     2
 91
        0
 40
1.0
 10
0.5150143422460253
 20
2.378038516804216
 30
0.0
 75
     0
  1
AcDbOsnapPointRef
 72
    13
331
101
 73
     2
 91
        0
 40
0.0
 10
4.390014342246025
 20
2.378038516804215
 30
0.0
 75
     0
  0
DIMASSOC
  5
180
102
{ACAD_REACTORS
330
175
102
}
330
175
100
AcDbDimAssoc
330
167
 90
        2
 70
     0
 71
     0
  1
AcDbOsnapPointRef
 72
     3
331
CA
 73
     2
 91
        0
 40
0.0
 10
0.9975143422460259
 20
3.128515310282173
 30
0.0
 75
     0
  0
DIMASSOC
  5
19A
102
{ACAD_REACTORS
330
18F
102
}
330
18F
100
AcDbDimAssoc
330
181
 90
        2
 70
     0
 71
     0
  1
AcDbOsnapPointRef
 72
     3
331
D2
 73
     2
 91
        0
 40
0.0
 10
2.452514342246025
 20
1.673515310282173
 30
0.0
 75
     0
  0
DIMASSOC
  5
1B4
102
{ACAD_REACTORS
330
1A9
102
}
330
1A9
100
AcDbDimAssoc
330
19B
 90
        3
 70
     0
 71
     0
  1
AcDbOsnapPointRef
 72
     3
331
DB
 73
     2
 91
        0
 40
1.570796326794896
 10
1.827514342246025
 20
5.178515310282172
 30
0.0
 75
     0
  1
AcDbOsnapPointRef
 72
     3
331
DC
 73
     2
 91
        0
 40
4.712388980384689
 10
3.077514342246025
 20
5.178515310282172
 30
0.0
 75
     0
  0
DIMASSOC
  5
1CE
102
{ACAD_REACTORS
330
1C3
102
}
330
1C3
100
AcDbDimAssoc
330
1B5
 90
        3
 70
     0
 71
     0
  1
AcDbOsnapPointRef
 72
     3
331
DB
 73
     2
 91
        0
 40
1.570796326794896
 10
1.827514342246025
 20
5.178515310282172
 30
0.0
 75
     0
  1
AcDbOsnapPointRef
 72
     3
331
DD
 73
     2
 91
        0
 40
1.570796326794896
 10
1.827514342246024
 20
1.078515310282172
 30
0.0
 75
     0
  0
DIMASSOC
  5
1F4
102
{ACAD_REACTORS
330
1E8
102
}
330
1E8
100
AcDbDimAssoc
330
1D9
 90
        3
 70
     0
 71
     0
  1
AcDbOsnapPointRef
 72
     3
331
DB
 73
     2
 91
        0
 40
1.570796326794896
 10
1.827514342246025
 20
5.178515310282172
 30
0.0
 75
     0
  1
AcDbOsnapPointRef
 72
     1
331
FA
 73
     2
 91
        0
 40
1.0
 10
1.265014342246025
 20
5.378038516804217
 30
0.0
 75
     0
  0
DIMASSOC
  5
20E
102
{ACAD_REACTORS
330
203
102
}
330
203
100
AcDbDimAssoc
330
1F5
 90
        2
 70
     0
 71
     0
  1
AcDbOsnapPointRef
 72
    13
331
101
 73
     2
 91
        0
 40
0.0
 10
4.390014342246025
 20
2.378038516804215
 30
0.0
 75
     0
  0
DIMASSOC
  5
232
102
{ACAD_REACTORS
330
227
102
}
330
227
100
AcDbDimAssoc
330
219
 90
        3
 70
     0
 71
     0
  1
AcDbOsnapPointRef
 72
    13
331
10B
 73
     2
 91
        0
 40
0.0
 10
6.367327246636973
 20
0.8780385168042165
 30
0.0
 75
     0
  1
AcDbOsnapPointRef
 72
     1
331
109
 73
     2
 91
        0
 40
1.0
 10
6.742327246636974
 20
0.8780385168042164
 30
0.0
 75
     0
  0
DIMASSOC
  5
24C
102
{ACAD_REACTORS
330
241
102
}
330
241
100
AcDbDimAssoc
330
233
 90
        3
 70
     0
 71
     0
  1
AcDbOsnapPointRef
 72
    13
331
11F
 73
     2
 91
        0
 40
0.0
 10
6.554327246636974
 20
1.845515310282173
 30
0.0
 75
     0
  1
AcDbOsnapPointRef
 72
    13
331
11E
 73
     2
 91
        0
 40
0.0
 10
6.742327246636974
 20
1.845515310282173
 30
0.0
 75
     0
  0
DIMASSOC
  5
274
102
{ACAD_REACTORS
330
269
102
}
330
269
100
AcDbDimAssoc
330
25B
 90
        2
 70
     0
 71
     0
  1
AcDbOsnapPointRef
 72
     1
331
EF
 73
     2
 91
        0
 40
1.0
 10
2.452514342246025
 20
4.003515310282172
 30
0.0
 75
     0
  0
DIMASSOC
  5
28A
102
{ACAD_REACTORS
330
281
102
}
330
281
100
AcDbDimAssoc
330
275
 90
        2
 70
     0
 71
     0
  1
AcDbOsnapPointRef
 72
     3
331
CC
 73
     2
 91
        0
 40
0.0
 10
0.0
 20
0.0
 30
0.0
 75
     0
  0
DIMASSOC
  5
2A0
102
{ACAD_REACTORS
330
297
102
}
330
297
100
AcDbDimAssoc
330
28B
 90
        2
 70
     0
 71
     0
  1
AcDbOsnapPointRef
 72
     3
331
CD
 73
     2
 91
        0
 40
0.0
 10
0.0
 20
0.0
 30
0.0
 75
     0
  0
DIMASSOC
  5
2D6
102
{ACAD_REACTORS
330
2CB
102
}
330
2CB
100
AcDbDimAssoc
330
2BD
 90
        3
 70
     0
 71
     0
  1
AcDbOsnapPointRef
 72
    13
331
106
 73
     2
 91
        0
 40
0.0
 10
0.5150143422460248
 20
3.878038516804217
 30
0.0
 75
     0
  1
AcDbOsnapPointRef
 72
     3
331
DB
 73
     2
 91
        0
 40
1.570796326794896
 10
1.827514342246025
 20
5.178515310282172
 30
0.0
 75
     0
  0
DIMASSOC
  5
30A
102
{ACAD_REACTORS
330
2FF
102
}
330
2FF
100
AcDbDimAssoc
330
2F1
 90
        3
 70
     0
 71
     0
  1
AcDbOsnapPointRef
 72
     1
331
104
 73
     2
 91
        0
 40
1.0
 10
3.640014342246024
 20
5.378038516804217
 30
0.0
 75
     0
  1
AcDbOsnapPointRef
 72
    13
331
FF
 73
     2
 91
        0
 40
0.0
 10
4.390014342246025
 20
3.878038516804216
 30
0.0
 75
     0
  0
DIMASSOC
  5
324
102
{ACAD_REACTORS
330
319
102
}
330
319
100
AcDbDimAssoc
330
30B
 90
        3
 70
     0
 71
     0
  1
AcDbOsnapPointRef
 72
     1
331
104
 73
     2
 91
        0
 40
1.0
 10
3.640014342246024
 20
5.378038516804217
 30
0.0
 75
     0
  1
AcDbOsnapPointRef
 72
    13
331
FF
 73
     2
 91
        0
 40
0.0
 10
4.390014342246025
 20
3.878038516804216
 30
0.0
 75
     0
  0
DIMASSOC
  5
340
102
{ACAD_REACTORS
330
334
102
}
330
334
100
AcDbDimAssoc
330
325
 90
        3
 70
     0
 71
     0
  1
AcDbOsnapPointRef
 72
    13
331
DB
 73
     2
 91
        0
 40
1.570796326794896
 10
1.827514342246025
 20
5.303515310282172
 30
0.0
 75
     0
  1
AcDbOsnapPointRef
 72
     1
331
DB
 73
     2
 91
        0
 40
4.712388980384689
 10
1.827514342246025
 20
5.053515310282172
 30
0.0
 75
     0
  0
DIMASSOC
  5
35A
102
{ACAD_REACTORS
330
34F
102
}
330
34F
100
AcDbDimAssoc
330
341
 90
        2
 70
     0
 71
     0
  1
AcDbOsnapPointRef
 72
     1
331
101
 73
     2
 91
        0
 40
0.9999999999999998
 10
3.640014342246025
 20
0.878038516804216
 30
0.0
 75
     0
  0
LAYOUT
  5
59
102
{ACAD_REACTORS
330
1A
102
}
330
1A
100
AcDbPlotSettings
  1

  2
none_device
  4
Letter_(8.50_x_11.00_Inches)
  6

 40
6.349999904632568
 41
6.349999904632568
 42
6.350006103515625
 43
6.350006103515625
 44
215.8999938964843
 45
279.3999938964843
 46
38.3032
 47
38.15079999999999
 48
0.0
 49
0.0
140
0.0
141
0.0
142
1.0
143
1.0
 70
   688
 72
     0
 73
     1
 74
     5
  7

 75
    16
147
1.0
148
0.0
149
0.0
100
AcDbLayout
  1
Layout1
 70
     1
 71
     1
 10
-1.75200024029589
 20
-1.757999996245376
 11
9.247999519408217
 21
6.741999763458731
 12
0.0
 22
0.0
 32
0.0
 14
-1.439262267973589
 24
-1.45797533402469
 34
0.0
 15
8.966538218833356
 25
6.396855050259421
 35
0.0
146
0.0
 13
0.0
 23
0.0
 33
0.0
 16
1.0
 26
0.0
 36
0.0
 17
0.0
 27
1.0
 37
0.0
 76
     0
330
58
331
77
  0
LAYOUT
  5
5E
102
{ACAD_REACTORS
330
1A
102
}
330
1A
100
AcDbPlotSettings
  1

  2
None
  4

  6

 40
0.0
 41
0.0
 42
0.0
 43
0.0
 44
0.0
 45
0.0
 46
0.0
 47
0.0
 48
0.0
 49
0.0
140
0.0
141
0.0
142
1.0
143
1.0
 70
   688
 72
     0
 73
     0
 74
     5
  7

 75
    16
147
1.0
148
0.0
149
0.0
100
AcDbLayout
  1
Layout2
 70
     1
 71
     2
 10
0.0
 20
0.0
 11
12.0
 21
9.0
 12
0.0
 22
0.0
 32
0.0
 14
0.0
 24
0.0
 34
0.0
 15
0.0
 25
0.0
 35
0.0
146
0.0
 13
0.0
 23
0.0
 33
0.0
 16
1.0
 26
0.0
 36
0.0
 17
0.0
 27
1.0
 37
0.0
 76
     0
330
5D
  0
LAYOUT
  5
22
102
{ACAD_REACTORS
330
1A
102
}
330
1A
100
AcDbPlotSettings
  1

  2
none_device
  4
ANSI_A_(8.50_x_11.00_Inches)
  6

 40
6.349999904632568
 41
19.04999923706054
 42
6.350006103515625
 43
19.04998779296875
 44
215.8999938964843
 45
279.3999938964843
 46
0.0
 47
0.0
 48
0.0
 49
0.0
140
0.0
141
0.0
142
1.0
143
2.584895464708373
 70
 11952
 72
     0
 73
     1
 74
     0
  7

 75
     0
147
0.3868628397755418
148
0.0
149
0.0
100
AcDbLayout
  1
Model
 70
     1
 71
     0
 10
0.0
 20
0.0
 11
12.0
 21
9.0
 12
0.0
 22
0.0
 32
0.0
 14
0.0
 24
0.0
 34
0.0
 15
0.0
 25
0.0
 35
0.0
146
0.0
 13
0.0
 23
0.0
 33
0.0
 16
1.0
 26
0.0
 36
0.0
 17
0.0
 27
1.0
 37
0.0
 76
     0
330
1F
  0
MLINESTYLE
  5
18
102
{ACAD_REACTORS
330
17
102
}
330
17
100
AcDbMlineStyle
  2
STANDARD
 70
     0
  3

 62
   256
 51
90.0
 52
90.0
 71
     2
 49
0.5
 62
   256
  6
BYLAYER
 49
-0.5
 62
   256
  6
BYLAYER
  0
ACDBPLACEHOLDER
  5
F
102
{ACAD_REACTORS
330
E
102
}
330
E
  0
DICTIONARYVAR
  5
67
102
{ACAD_REACTORS
330
66
102
}
330
66
100
DictionaryVariables
280
     0
  1
2
  0
DICTIONARYVAR
  5
6B
102
{ACAD_REACTORS
330
66
102
}
330
66
100
DictionaryVariables
280
     0
  1
1
  0
ENDSEC
  0
EOF
