  0
SECTION
  2
HEADER
  9
$ACADVER
  1
AC1015
  9
$ACADMAINTVER
 70
    13
  9
$DWGCODEPAGE
  3
ANSI_1252
  9
$INSBASE
 10
0.0
 20
0.0
 30
0.0
  9
$EXTMIN
 10
1.000000000000000E+20
 20
1.000000000000000E+20
 30
1.000000000000000E+20
  9
$EXTMAX
 10
-1.000000000000000E+20
 20
-1.000000000000000E+20
 30
-1.000000000000000E+20
  9
$LIMMIN
 10
0.0
 20
0.0
  9
$LIMMAX
 10
12.0
 20
9.0
  9
$ORTHOMODE
 70
     0
  9
$REGENMODE
 70
     1
  9
$FILLMODE
 70
     1
  9
$QTEXTMODE
 70
     0
  9
$MIRRTEXT
 70
     1
  9
$LTSCALE
 40
0.3
  9
$ATTMODE
 70
     1
  9
$TEXTSIZE
 40
0.2
  9
$TRACEWID
 40
0.05
  9
$TEXTSTYLE
  7
Standard
  9
$CLAYER
  8
0
  9
$CELTYPE
  6
ByLayer
  9
$CECOLOR
 62
   256
  9
$CELTSCALE
 40
0.3
  9
$DISPSILH
 70
     0
  9
$DIMSCALE
 40
1.0
  9
$DIMASZ
 40
0.125
  9
$DIMEXO
 40
0.0625
  9
$DIMDLI
 40
0.38
  9
$DIMRND
 40
0.0
  9
$DIMDLE
 40
0.0
  9
$DIMEXE
 40
0.18
  9
$DIMTP
 40
0.0
  9
$DIMTM
 40
0.0
  9
$DIMTXT
 40
0.125
  9
$DIMCEN
 40
0.09
  9
$DIMTSZ
 40
0.0
  9
$DIMTOL
 70
     0
  9
$DIMLIM
 70
     0
  9
$DIMTIH
 70
     1
  9
$DIMTOH
 70
     1
  9
$DIMSE1
 70
     0
  9
$DIMSE2
 70
     0
  9
$DIMTAD
 70
     0
  9
$DIMZIN
 70
     0
  9
$DIMBLK
  1

  9
$DIMASO
 70
     1
  9
$DIMSHO
 70
     1
  9
$DIMPOST
  1

  9
$DIMAPOST
  1

  9
$DIMALT
 70
     0
  9
$DIMALTD
 70
     2
  9
$DIMALTF
 40
25.4
  9
$DIMLFAC
 40
1.0
  9
$DIMTOFL
 70
     0
  9
$DIMTVP
 40
0.0
  9
$DIMTIX
 70
     0
  9
$DIMSOXD
 70
     0
  9
$DIMSAH
 70
     0
  9
$DIMBLK1
  1

  9
$DIMBLK2
  1

  9
$DIMSTYLE
  2
Standard
  9
$DIMCLRD
 70
     0
  9
$DIMCLRE
 70
     0
  9
$DIMCLRT
 70
     0
  9
$DIMTFAC
 40
1.0
  9
$DIMGAP
 40
0.09
  9
$DIMJUST
 70
     0
  9
$DIMSD1
 70
     0
  9
$DIMSD2
 70
     0
  9
$DIMTOLJ
 70
     1
  9
$DIMTZIN
 70
     0
  9
$DIMALTZ
 70
     0
  9
$DIMALTTZ
 70
     0
  9
$DIMUPT
 70
     0
  9
$DIMDEC
 70
     3
  9
$DIMTDEC
 70
     3
  9
$DIMALTU
 70
     2
  9
$DIMALTTD
 70
     2
  9
$DIMTXSTY
  7
Standard
  9
$DIMAUNIT
 70
     0
  9
$DIMADEC
 70
     0
  9
$DIMALTRND
 40
0.0
  9
$DIMAZIN
 70
     0
  9
$DIMDSEP
 70
    46
  9
$DIMATFIT
 70
     3
  9
$DIMFRAC
 70
     0
  9
$DIMLDRBLK
  1

  9
$DIMLUNIT
 70
     2
  9
$DIMLWD
 70
    -2
  9
$DIMLWE
 70
    -2
  9
$DIMTMOVE
 70
     0
  9
$LUNITS
 70
     2
  9
$LUPREC
 70
     4
  9
$SKETCHINC
 40
0.1
  9
$FILLETRAD
 40
0.5
  9
$AUNITS
 70
     0
  9
$AUPREC
 70
     0
  9
$MENU
  1
.
  9
$ELEVATION
 40
0.0
  9
$PELEVATION
 40
0.0
  9
$THICKNESS
 40
0.0
  9
$LIMCHECK
 70
     0
  9
$CHAMFERA
 40
0.5
  9
$CHAMFERB
 40
0.5
  9
$CHAMFERC
 40
1.0
  9
$CHAMFERD
 40
0.0
  9
$SKPOLY
 70
     0
  9
$TDCREATE
 40
2454412.621520173
  9
$TDUCREATE
 40
2454412.788186840
  9
$TDUPDATE
 40
2455408.246621701
  9
$TDUUPDATE
 40
2455408.413288367
  9
$TDINDWG
 40
0.0428996412
  9
$TDUSRTIMER
 40
0.0428996412
  9
$USRTIMER
 70
     1
  9
$ANGBASE
 50
0.0
  9
$ANGDIR
 70
     0
  9
$PDMODE
 70
     0
  9
$PDSIZE
 40
0.0
  9
$PLINEWID
 40
0.0
  9
$SPLFRAME
 70
     0
  9
$SPLINETYPE
 70
     6
  9
$SPLINESEGS
 70
     8
  9
$HANDSEED
  5
20F
  9
$SURFTAB1
 70
     6
  9
$SURFTAB2
 70
     6
  9
$SURFTYPE
 70
     6
  9
$SURFU
 70
     6
  9
$SURFV
 70
     6
  9
$UCSBASE
  2

  9
$UCSNAME
  2

  9
$UCSORG
 10
0.0
 20
0.0
 30
0.0
  9
$UCSXDIR
 10
1.0
 20
0.0
 30
0.0
  9
$UCSYDIR
 10
0.0
 20
1.0
 30
0.0
  9
$UCSORTHOREF
  2

  9
$UCSORTHOVIEW
 70
     0
  9
$UCSORGTOP
 10
0.0
 20
0.0
 30
0.0
  9
$UCSORGBOTTOM
 10
0.0
 20
0.0
 30
0.0
  9
$UCSORGLEFT
 10
0.0
 20
0.0
 30
0.0
  9
$UCSORGRIGHT
 10
0.0
 20
0.0
 30
0.0
  9
$UCSORGFRONT
 10
0.0
 20
0.0
 30
0.0
  9
$UCSORGBACK
 10
0.0
 20
0.0
 30
0.0
  9
$PUCSBASE
  2

  9
$PUCSNAME
  2

  9
$PUCSORG
 10
0.0
 20
0.0
 30
0.0
  9
$PUCSXDIR
 10
1.0
 20
0.0
 30
0.0
  9
$PUCSYDIR
 10
0.0
 20
1.0
 30
0.0
  9
$PUCSORTHOREF
  2

  9
$PUCSORTHOVIEW
 70
     0
  9
$PUCSORGTOP
 10
0.0
 20
0.0
 30
0.0
  9
$PUCSORGBOTTOM
 10
0.0
 20
0.0
 30
0.0
  9
$PUCSORGLEFT
 10
0.0
 20
0.0
 30
0.0
  9
$PUCSORGRIGHT
 10
0.0
 20
0.0
 30
0.0
  9
$PUCSORGFRONT
 10
0.0
 20
0.0
 30
0.0
  9
$PUCSORGBACK
 10
0.0
 20
0.0
 30
0.0
  9
$USERI1
 70
     0
  9
$USERI2
 70
     0
  9
$USERI3
 70
     0
  9
$USERI4
 70
     0
  9
$USERI5
 70
     0
  9
$USERR1
 40
0.0
  9
$USERR2
 40
0.0
  9
$USERR3
 40
0.0
  9
$USERR4
 40
0.0
  9
$USERR5
 40
0.0
  9
$WORLDVIEW
 70
     1
  9
$SHADEDGE
 70
     3
  9
$SHADEDIF
 70
    70
  9
$TILEMODE
 70
     0
  9
$MAXACTVP
 70
    64
  9
$PINSBASE
 10
0.0
 20
0.0
 30
0.0
  9
$PLIMCHECK
 70
     0
  9
$PEXTMIN
 10
-1.439262267973589
 20
-1.41285528304607
 30
0.0
  9
$PEXTMAX
 10
378.5644035047149
 20
6.396855050259421
 30
0.0
  9
$PLIMMIN
 10
-1.75200024029589
 20
-1.757999996245376
  9
$PLIMMAX
 10
9.247999519408217
 20
6.741999763458731
  9
$UNITMODE
 70
     0
  9
$VISRETAIN
 70
     1
  9
$PLINEGEN
 70
     0
  9
$PSLTSCALE
 70
     1
  9
$TREEDEPTH
 70
  3020
  9
$CMLSTYLE
  2
Standard
  9
$CMLJUST
 70
     0
  9
$CMLSCALE
 40
1.0
  9
$PROXYGRAPHICS
 70
     1
  9
$MEASUREMENT
 70
     0
  9
$CELWEIGHT
370
    -1
  9
$ENDCAPS
280
     0
  9
$JOINSTYLE
280
     0
  9
$LWDISPLAY
290
     0
  9
$INSUNITS
 70
     1
  9
$HYPERLINKBASE
  1

  9
$STYLESHEET
  1

  9
$XEDIT
290
     1
  9
$CEPSNTYPE
380
     0
  9
$PSTYLEMODE
290
     1
  9
$FINGERPRINTGUID
  2
{FDEAD576-A652-11D2-9A35-0060089B3A3F}
  9
$VERSIONGUID
  2
{C7AC61AE-2CC1-4D14-B00C-A1AA0CC221DD}
  9
$EXTNAMES
290
     1
  9
$PSVPSCALE
 40
0.0
  9
$OLESTARTUP
290
     0
  0
ENDSEC
  0
SECTION
  2
CLASSES
  0
CLASS
  1
ACDBDICTIONARYWDFLT
  2
AcDbDictionaryWithDefault
  3
AutoCAD 2000
 90
        0
280
     0
281
     0
  0
CLASS
  1
ACDBPLACEHOLDER
  2
AcDbPlaceHolder
  3
AutoCAD 2000
 90
        0
280
     0
281
     0
  0
CLASS
  1
LAYOUT
  2
AcDbLayout
  3
AutoCAD 2000
 90
        0
280
     0
281
     0
  0
CLASS
  1
DICTIONARYVAR
  2
AcDbDictionaryVar
  3
AutoCAD 2000
 90
        0
280
     0
281
     0
  0
CLASS
  1
DIMASSOC
  2
AcDbDimAssoc
  3
"AcDbDimAssoc|Product Desc:     AcDim ARX App For Dimension|Company:          Autodesk, Inc.|WEB Address:      www.autodesk.com"
 90
        0
280
     0
281
     0
  0
ENDSEC
  0
SECTION
  2
TABLES
  0
TABLE
  2
VPORT
  5
8
330
0
100
AcDbSymbolTable
 70
     1
  0
VPORT
  5
74
330
8
100
AcDbSymbolTableRecord
100
AcDbViewportTableRecord
  2
*Active
 70
     0
 10
0.0
 20
0.0
 11
1.0
 21
1.0
 12
20.48748698095427
 22
9.784138269231398
 13
0.0
 23
0.0
 14
0.5
 24
0.5
 15
0.5
 25
0.5
 16
0.0
 26
0.0
 36
1.0
 17
0.0
 27
0.0
 37
0.0
 40
19.56827653846279
 41
2.093949044585987
 42
50.0
 43
0.0
 44
0.0
 50
0.0
 51
0.0
 71
     0
 72
   100
 73
     1
 74
     3
 75
     0
 76
     0
 77
     0
 78
     0
281
     0
 65
     1
110
0.0
120
0.0
130
0.0
111
1.0
121
0.0
131
0.0
112
0.0
122
1.0
132
0.0
 79
     0
146
0.0
  0
ENDTAB
  0
TABLE
  2
LTYPE
  5
5
330
0
100
AcDbSymbolTable
 70
     3
  0
LTYPE
  5
14
330
5
100
AcDbSymbolTableRecord
100
AcDbLinetypeTableRecord
  2
ByBlock
 70
     0
  3

 72
    65
 73
     0
 40
0.0
  0
LTYPE
  5
15
330
5
100
AcDbSymbolTableRecord
100
AcDbLinetypeTableRecord
  2
ByLayer
 70
     0
  3

 72
    65
 73
     0
 40
0.0
  0
LTYPE
  5
16
330
5
100
AcDbSymbolTableRecord
100
AcDbLinetypeTableRecord
  2
Continuous
 70
     0
  3
Solid line
 72
    65
 73
     0
 40
0.0
  0
LTYPE
  5
92
330
5
100
AcDbSymbolTableRecord
100
AcDbLinetypeTableRecord
  2
HIDDENX2
 70
     0
  3
Hidden (2x) ____ ____ ____ ____ ____ ____ ____
 72
    65
 73
     2
 40
0.75
 49
0.5
 74
     0
 49
-0.25
 74
     0
  0
LTYPE
  5
93
330
5
100
AcDbSymbolTableRecord
100
AcDbLinetypeTableRecord
  2
threads
 70
     0
  3
Zig zag /\/\/\/\/\/\/\/\/\/\/\/\/\/\/\/\/\/\/\/
 72
    65
 73
     4
 40
0.8001000000000001
 49
0.0001
 74
     0
 49
-0.2
 74
     4
 75
   131
340
91
 46
0.2
 50
0.0
 44
-0.2
 45
0.0
 49
-0.4
 74
     4
 75
   131
340
91
 46
0.2
 50
180.0
 44
0.2
 45
0.0
 49
-0.2
 74
     0
  0
ENDTAB
  0
TABLE
  2
LAYER
  5
2
330
0
100
AcDbSymbolTable
 70
     2
  0
LAYER
  5
10
330
2
100
AcDbSymbolTableRecord
100
AcDbLayerTableRecord
  2
0
 70
     0
 62
     7
  6
Continuous
370
    -3
390
F
  0
LAYER
  5
E7
330
2
100
AcDbSymbolTableRecord
100
AcDbLayerTableRecord
  2
Defpoints
 70
     0
 62
     7
  6
Continuous
290
     0
370
    -3
390
F
  0
ENDTAB
  0
TABLE
  2
STYLE
  5
3
330
0
100
AcDbSymbolTable
 70
     2
  0
STYLE
  5
11
330
3
100
AcDbSymbolTableRecord
100
AcDbTextStyleTableRecord
  2
Standard
 70
     0
 40
0.0
 41
1.0
 50
0.0
 71
     0
 42
0.2
  3
txt
  4

  0
STYLE
  5
91
330
3
100
AcDbSymbolTableRecord
100
AcDbTextStyleTableRecord
  2

 70
     1
 40
0.0
 41
1.0
 50
0.0
 71
     0
 42
0.2
  3
ltypeshp.shx
  4

  0
ENDTAB
  0
TABLE
  2
VIEW
  5
6
330
0
100
AcDbSymbolTable
 70
     0
  0
ENDTAB
  0
TABLE
  2
UCS
  5
7
330
0
100
AcDbSymbolTable
 70
     0
  0
ENDTAB
  0
TABLE
  2
APPID
  5
9
330
0
100
AcDbSymbolTable
 70
     1
  0
APPID
  5
12
330
9
100
AcDbSymbolTableRecord
100
AcDbRegAppTableRecord
  2
ACAD
 70
     0
  0
ENDTAB
  0
TABLE
  2
DIMSTYLE
  5
A
330
0
100
AcDbSymbolTable
 70
     1
100
AcDbDimStyleTable
 71
     1
340
27
  0
DIMSTYLE
105
27
102
{ACAD_REACTORS
330
E6
330
FD
330
113
330
131
330
14B
330
165
330
193
330
1BB
330
1D5
330
1F1
102
}
330
A
100
AcDbSymbolTableRecord
100
AcDbDimStyleTableRecord
  2
Standard
 70
     0
 41
0.125
140
0.125
271
     3
272
     3
340
11
  0
ENDTAB
  0
TABLE
  2
BLOCK_RECORD
  5
1
330
0
100
AcDbSymbolTable
 70
    11
  0
BLOCK_RECORD
  5
1F
330
1
100
AcDbSymbolTableRecord
100
AcDbBlockTableRecord
  2
*Model_Space
340
22
  0
BLOCK_RECORD
  5
58
330
1
100
AcDbSymbolTableRecord
100
AcDbBlockTableRecord
  2
*Paper_Space
340
59
  0
BLOCK_RECORD
  5
5D
330
1
100
AcDbSymbolTableRecord
100
AcDbBlockTableRecord
  2
*Paper_Space0
340
5E
  0
BLOCK_RECORD
  5
E8
330
1
100
AcDbSymbolTableRecord
100
AcDbBlockTableRecord
  2
*D1
340
0
  0
BLOCK_RECORD
  5
FE
330
1
100
AcDbSymbolTableRecord
100
AcDbBlockTableRecord
  2
*D2
340
0
  0
BLOCK_RECORD
  5
114
330
1
100
AcDbSymbolTableRecord
100
AcDbBlockTableRecord
  2
*D3
340
0
  0
BLOCK_RECORD
  5
132
330
1
100
AcDbSymbolTableRecord
100
AcDbBlockTableRecord
  2
*D4
340
0
  0
BLOCK_RECORD
  5
14C
330
1
100
AcDbSymbolTableRecord
100
AcDbBlockTableRecord
  2
*D5
340
0
  0
BLOCK_RECORD
  5
166
330
1
100
AcDbSymbolTableRecord
100
AcDbBlockTableRecord
  2
*D6
340
0
  0
BLOCK_RECORD
  5
194
330
1
100
AcDbSymbolTableRecord
100
AcDbBlockTableRecord
  2
*D7
340
0
  0
BLOCK_RECORD
  5
1BC
330
1
100
AcDbSymbolTableRecord
100
AcDbBlockTableRecord
  2
*D8
340
0
  0
BLOCK_RECORD
  5
1D6
330
1
100
AcDbSymbolTableRecord
100
AcDbBlockTableRecord
  2
*D9
340
0
  0
BLOCK_RECORD
  5
1F2
330
1
100
AcDbSymbolTableRecord
100
AcDbBlockTableRecord
  2
*D10
340
0
  0
ENDTAB
  0
ENDSEC
  0
SECTION
  2
BLOCKS
  0
BLOCK
  5
20
330
1F
100
AcDbEntity
  8
0
100
AcDbBlockBegin
  2
*Model_Space
 70
     0
 10
0.0
 20
0.0
 30
0.0
  3
*Model_Space
  1

  0
ENDBLK
  5
21
330
1F
100
AcDbEntity
  8
0
100
AcDbBlockEnd
  0
BLOCK
  5
5A
330
58
100
AcDbEntity
 67
     1
  8
0
100
AcDbBlockBegin
  2
*Paper_Space
 70
     0
 10
0.0
 20
0.0
 30
0.0
  3
*Paper_Space
  1

  0
ENDBLK
  5
5B
330
58
100
AcDbEntity
 67
     1
  8
0
100
AcDbBlockEnd
  0
BLOCK
  5
5F
330
5D
100
AcDbEntity
  8
0
100
AcDbBlockBegin
  2
*Paper_Space0
 70
     0
 10
0.0
 20
0.0
 30
0.0
  3
*Paper_Space0
  1

  0
ENDBLK
  5
60
330
5D
100
AcDbEntity
  8
0
100
AcDbBlockEnd
  0
BLOCK
  5
F1
330
E8
100
AcDbEntity
  8
0
 48
0.3
100
AcDbBlockBegin
  2
*D1
 70
     1
 10
0.0
 20
0.0
 30
0.0
  3
*D1
  1

  0
LINE
  5
F4
330
E8
100
AcDbEntity
  8
0
 62
     0
 48
0.3
370
    -2
100
AcDbLine
 10
0.9798314697179799
 20
5.681649581810798
 30
0.0
 11
1.10483146971798
 21
5.681649581810798
 31
0.0
  0
LINE
  5
F5
330
E8
100
AcDbEntity
  8
0
 62
     0
 48
0.3
370
    -2
100
AcDbLine
 10
1.10483146971798
 20
5.681649581810798
 30
0.0
 11
1.442300771903712
 21
5.070013599922893
 31
0.0
  0
MTEXT
  5
F6
330
E8
100
AcDbEntity
  8
0
 62
     0
 48
0.3
100
AcDbMText
 10
0.6085814697179801
 20
5.681649581810798
 30
0.0
 40
0.125
 41
0.0
 71
     5
 72
     1
  1
\A1;\U+22051.750
 73
     1
 44
1.0
  0
SOLID
  5
F7
330
E8
100
AcDbEntity
  8
0
 62
     0
 48
0.3
100
AcDbTrace
 10
1.460541784846612
 20
5.080078053439837
 30
0.0
 11
1.424059758960812
 21
5.059949146405949
 31
0.0
 12
1.502687493005377
 22
4.960567522265494
 32
0.0
 13
1.502687493005377
 23
4.960567522265494
 33
0.0
  0
LINE
  5
F8
330
E8
100
AcDbEntity
  8
0
 62
     0
 48
0.3
370
    -2
100
AcDbLine
 10
1.835394540717037
 20
4.194444978663693
 30
0.0
 11
2.015394540717037
 21
4.194444978663693
 31
0.0
  0
LINE
  5
F9
330
E8
100
AcDbEntity
  8
0
 62
     0
 48
0.3
370
    -2
100
AcDbLine
 10
1.925394540717037
 20
4.104444978663693
 30
0.0
 11
1.925394540717037
 21
4.284444978663692
 31
0.0
  0
POINT
  5
FA
330
E8
100
AcDbEntity
  8
Defpoints
 62
     0
 48
0.3
100
AcDbPoint
 10
1.502687493005377
 20
4.960567522265494
 30
0.0
  0
POINT
  5
FB
330
E8
100
AcDbEntity
  8
Defpoints
 62
     0
 48
0.3
100
AcDbPoint
 10
2.348101588428695
 20
3.428322435061891
 30
0.0
  0
ENDBLK
  5
F2
330
E8
100
AcDbEntity
  8
0
 48
0.3
100
AcDbBlockEnd
  0
BLOCK
  5
107
330
FE
100
AcDbEntity
  8
0
 48
0.3
100
AcDbBlockBegin
  2
*D2
 70
     1
 10
0.0
 20
0.0
 30
0.0
  3
*D2
  1

  0
LINE
  5
10A
330
FE
100
AcDbEntity
  8
0
 62
     0
 48
0.3
370
    -2
100
AcDbLine
 10
0.6758352463875383
 20
5.042434643953219
 30
0.0
 11
0.8008352463875375
 21
5.042434643953218
 31
0.0
  0
LINE
  5
10B
330
FE
100
AcDbEntity
  8
0
 62
     0
 48
0.3
370
    -2
100
AcDbLine
 10
0.8008352463875375
 20
5.042434643953218
 30
0.0
 11
1.426369680069702
 21
4.570741654779638
 31
0.0
  0
MTEXT
  5
10C
330
FE
100
AcDbEntity
  8
0
 62
     0
 48
0.3
100
AcDbMText
 10
0.3254185797208722
 20
5.042434643953219
 30
0.0
 40
0.125
 41
0.0
 71
     5
 72
     1
  1
\A1;\U+22051.000
 73
     1
 44
1.0
  0
SOLID
  5
10D
330
FE
100
AcDbEntity
  8
0
 62
     0
 48
0.3
100
AcDbTrace
 10
1.438912902606901
 20
4.587375816801215
 30
0.0
 11
1.413826457532504
 21
4.554107492758061
 31
0.0
 12
1.526174652199169
 22
4.495482319556449
 32
0.0
 13
1.526174652199169
 23
4.495482319556449
 33
0.0
  0
LINE
  5
10E
330
FE
100
AcDbEntity
  8
0
 62
     0
 48
0.3
370
    -2
100
AcDbLine
 10
1.835394540717035
 20
4.194444978663692
 30
0.0
 11
2.015394540717035
 21
4.194444978663693
 31
0.0
  0
LINE
  5
10F
330
FE
100
AcDbEntity
  8
0
 62
     0
 48
0.3
370
    -2
100
AcDbLine
 10
1.925394540717035
 20
4.104444978663692
 30
0.0
 11
1.925394540717035
 21
4.284444978663692
 31
0.0
  0
POINT
  5
110
330
FE
100
AcDbEntity
  8
Defpoints
 62
     0
 48
0.3
100
AcDbPoint
 10
1.526174652199169
 20
4.495482319556449
 30
0.0
  0
POINT
  5
111
330
FE
100
AcDbEntity
  8
Defpoints
 62
     0
 48
0.3
100
AcDbPoint
 10
2.324614429234902
 20
3.893407637770934
 30
0.0
  0
ENDBLK
  5
108
330
FE
100
AcDbEntity
  8
0
 48
0.3
100
AcDbBlockEnd
  0
BLOCK
  5
11F
330
114
100
AcDbEntity
  8
0
 48
0.3
100
AcDbBlockBegin
  2
*D3
 70
     1
 10
0.0
 20
0.0
 30
0.0
  3
*D3
  1

  0
LINE
  5
122
330
114
100
AcDbEntity
  8
0
 62
     0
 48
0.3
370
    -2
100
AcDbLine
 10
1.987894540717036
 20
4.902444978663693
 30
0.0
 11
3.460804787851465
 21
4.902444978663692
 31
0.0
  0
LINE
  5
123
330
114
100
AcDbEntity
  8
0
 62
     0
 48
0.3
370
    -2
100
AcDbLine
 10
1.987894540717036
 20
3.486444978663692
 30
0.0
 11
3.460804787851465
 21
3.486444978663692
 31
0.0
  0
LINE
  5
124
330
114
100
AcDbEntity
  8
0
 62
     0
 48
0.3
370
    -2
100
AcDbLine
 10
3.280804787851465
 20
4.777444978663692
 30
0.0
 11
3.280804787851465
 21
4.346944978663692
 31
0.0
  0
LINE
  5
125
330
114
100
AcDbEntity
  8
0
 62
     0
 48
0.3
370
    -2
100
AcDbLine
 10
3.280804787851465
 20
3.611444978663692
 30
0.0
 11
3.280804787851465
 21
4.041944978663692
 31
0.0
  0
SOLID
  5
126
330
114
100
AcDbEntity
  8
0
 62
     0
 48
0.3
100
AcDbTrace
 10
3.259971454518132
 20
4.777444978663692
 30
0.0
 11
3.301638121184799
 21
4.777444978663692
 31
0.0
 12
3.280804787851465
 22
4.902444978663692
 32
0.0
 13
3.280804787851465
 23
4.902444978663692
 33
0.0
  0
SOLID
  5
127
330
114
100
AcDbEntity
  8
0
 62
     0
 48
0.3
100
AcDbTrace
 10
3.259971454518132
 20
3.611444978663692
 30
0.0
 11
3.301638121184799
 21
3.611444978663692
 31
0.0
 12
3.280804787851465
 22
3.486444978663692
 32
0.0
 13
3.280804787851465
 23
3.486444978663692
 33
0.0
  0
MTEXT
  5
128
330
114
100
AcDbEntity
  8
0
 62
     0
 48
0.3
100
AcDbMText
 10
3.280804787851465
 20
4.194444978663693
 30
0.0
 40
0.125
 41
0.0
 71
     5
 72
     1
  1
\A1;1.416
 73
     1
 44
1.0
  0
POINT
  5
129
330
114
100
AcDbEntity
  8
Defpoints
 62
     0
 48
0.3
100
AcDbPoint
 10
1.925394540717036
 20
4.902444978663693
 30
0.0
  0
POINT
  5
12A
330
114
100
AcDbEntity
  8
Defpoints
 62
     0
 48
0.3
100
AcDbPoint
 10
1.925394540717036
 20
3.486444978663692
 30
0.0
  0
POINT
  5
12B
330
114
100
AcDbEntity
  8
Defpoints
 62
     0
 48
0.3
100
AcDbPoint
 10
3.280804787851465
 20
3.486444978663692
 30
0.0
  0
ENDBLK
  5
120
330
114
100
AcDbEntity
  8
0
 48
0.3
100
AcDbBlockEnd
  0
BLOCK
  5
13D
330
132
100
AcDbEntity
  8
0
 48
0.3
100
AcDbBlockBegin
  2
*D4
 70
     1
 10
0.0
 20
0.0
 30
0.0
  3
*D4
  1

  0
LINE
  5
17F
330
132
100
AcDbEntity
  8
0
 62
     0
 48
0.3
370
    -2
100
AcDbLine
 10
4.295524927835415
 20
3.256944978663693
 30
0.0
 11
4.295524927835415
 21
2.113810437512412
 31
0.0
  0
LINE
  5
180
330
132
100
AcDbEntity
  8
0
 62
     0
 48
0.3
370
    -2
100
AcDbLine
 10
5.795524927835415
 20
3.256944978663693
 30
0.0
 11
5.795524927835415
 21
2.113810437512412
 31
0.0
  0
LINE
  5
181
330
132
100
AcDbEntity
  8
0
 62
     0
 48
0.3
370
    -2
100
AcDbLine
 10
4.420524927835415
 20
2.293810437512412
 30
0.0
 11
4.747191594502082
 21
2.293810437512412
 31
0.0
  0
LINE
  5
182
330
132
100
AcDbEntity
  8
0
 62
     0
 48
0.3
370
    -2
100
AcDbLine
 10
5.670524927835415
 20
2.293810437512412
 30
0.0
 11
5.343858261168747
 21
2.293810437512412
 31
0.0
  0
SOLID
  5
183
330
132
100
AcDbEntity
  8
0
 62
     0
 48
0.3
100
AcDbTrace
 10
4.420524927835415
 20
2.314643770845746
 30
0.0
 11
4.420524927835415
 21
2.272977104179079
 31
0.0
 12
4.295524927835415
 22
2.293810437512412
 32
0.0
 13
4.295524927835415
 23
2.293810437512412
 33
0.0
  0
SOLID
  5
184
330
132
100
AcDbEntity
  8
0
 62
     0
 48
0.3
100
AcDbTrace
 10
5.670524927835415
 20
2.314643770845746
 30
0.0
 11
5.670524927835415
 21
2.272977104179079
 31
0.0
 12
5.795524927835415
 22
2.293810437512412
 32
0.0
 13
5.795524927835415
 23
2.293810437512412
 33
0.0
  0
MTEXT
  5
185
330
132
100
AcDbEntity
  8
0
 62
     0
 48
0.3
100
AcDbMText
 10
5.045524927835415
 20
2.293810437512412
 30
0.0
 40
0.125
 41
0.0
 71
     5
 72
     1
  1
\A1;1.500
 73
     1
 44
1.0
  0
POINT
  5
186
330
132
100
AcDbEntity
  8
Defpoints
 62
     0
 48
0.3
100
AcDbPoint
 10
4.295524927835415
 20
3.319444978663693
 30
0.0
  0
POINT
  5
187
330
132
100
AcDbEntity
  8
Defpoints
 62
     0
 48
0.3
100
AcDbPoint
 10
5.795524927835415
 20
3.319444978663693
 30
0.0
  0
POINT
  5
188
330
132
100
AcDbEntity
  8
Defpoints
 62
     0
 48
0.3
100
AcDbPoint
 10
5.795524927835415
 20
2.293810437512412
 30
0.0
  0
ENDBLK
  5
13E
330
132
100
AcDbEntity
  8
0
 48
0.3
100
AcDbBlockEnd
  0
BLOCK
  5
157
330
14C
100
AcDbEntity
  8
0
 48
0.3
100
AcDbBlockBegin
  2
*D5
 70
     1
 10
0.0
 20
0.0
 30
0.0
  3
*D5
  1

  0
LINE
  5
15A
330
14C
100
AcDbEntity
  8
0
 62
     0
 48
0.3
370
    -2
100
AcDbLine
 10
5.295524927835415
 20
4.131944978663693
 30
0.0
 11
5.295524927835415
 21
2.8009664836337
 31
0.0
  0
LINE
  5
15B
330
14C
100
AcDbEntity
  8
0
 62
     0
 48
0.3
370
    -2
100
AcDbLine
 10
5.795524927835415
 20
3.256944978663693
 30
0.0
 11
5.795524927835415
 21
2.8009664836337
 31
0.0
  0
LINE
  5
15C
330
14C
100
AcDbEntity
  8
0
 62
     0
 48
0.3
370
    -2
100
AcDbLine
 10
5.420524927835415
 20
2.9809664836337
 30
0.0
 11
5.670524927835415
 21
2.9809664836337
 31
0.0
  0
LINE
  5
15D
330
14C
100
AcDbEntity
  8
0
 62
     0
 48
0.3
370
    -2
100
AcDbLine
 10
5.795524927835415
 20
2.9809664836337
 30
0.0
 11
5.920524927835415
 21
2.9809664836337
 31
0.0
  0
SOLID
  5
15E
330
14C
100
AcDbEntity
  8
0
 62
     0
 48
0.3
100
AcDbTrace
 10
5.420524927835415
 20
3.001799816967034
 30
0.0
 11
5.420524927835415
 21
2.960133150300367
 31
0.0
 12
5.295524927835415
 22
2.9809664836337
 32
0.0
 13
5.295524927835415
 23
2.9809664836337
 33
0.0
  0
SOLID
  5
15F
330
14C
100
AcDbEntity
  8
0
 62
     0
 48
0.3
100
AcDbTrace
 10
5.670524927835415
 20
3.001799816967034
 30
0.0
 11
5.670524927835415
 21
2.960133150300367
 31
0.0
 12
5.795524927835415
 22
2.9809664836337
 32
0.0
 13
5.795524927835415
 23
2.9809664836337
 33
0.0
  0
MTEXT
  5
160
330
14C
100
AcDbEntity
  8
0
 62
     0
 48
0.3
100
AcDbMText
 10
6.229274927835414
 20
2.9809664836337
 30
0.0
 40
0.125
 41
0.0
 71
     5
 72
     1
  1
\A1;0.500
 73
     1
 44
1.0
  0
POINT
  5
161
330
14C
100
AcDbEntity
  8
Defpoints
 62
     0
 48
0.3
100
AcDbPoint
 10
5.295524927835415
 20
4.194444978663693
 30
0.0
  0
POINT
  5
162
330
14C
100
AcDbEntity
  8
Defpoints
 62
     0
 48
0.3
100
AcDbPoint
 10
5.795524927835415
 20
3.319444978663693
 30
0.0
  0
POINT
  5
163
330
14C
100
AcDbEntity
  8
Defpoints
 62
     0
 48
0.3
100
AcDbPoint
 10
5.795524927835415
 20
2.9809664836337
 30
0.0
  0
ENDBLK
  5
158
330
14C
100
AcDbEntity
  8
0
 48
0.3
100
AcDbBlockEnd
  0
BLOCK
  5
171
330
166
100
AcDbEntity
  8
0
 48
0.3
100
AcDbBlockBegin
  2
*D6
 70
     1
 10
0.0
 20
0.0
 30
0.0
  3
*D6
  1

  0
LINE
  5
1AD
330
166
100
AcDbEntity
  8
0
 62
     0
 48
0.3
370
    -2
100
AcDbLine
 10
4.670524927835415
 20
3.344444978663692
 30
0.0
 11
4.670524927835415
 21
2.564103890366496
 31
0.0
  0
LINE
  5
1AE
330
166
100
AcDbEntity
  8
0
 62
     0
 48
0.3
370
    -2
100
AcDbLine
 10
4.295524927835415
 20
3.344444978663692
 30
0.0
 11
4.295524927835415
 21
2.564103890366496
 31
0.0
  0
LINE
  5
1AF
330
166
100
AcDbEntity
  8
0
 62
     0
 48
0.3
370
    -2
100
AcDbLine
 10
4.795524927835415
 20
2.744103890366496
 30
0.0
 11
4.920524927835415
 21
2.744103890366496
 31
0.0
  0
LINE
  5
1B0
330
166
100
AcDbEntity
  8
0
 62
     0
 48
0.3
370
    -2
100
AcDbLine
 10
4.170524927835415
 20
2.744103890366496
 30
0.0
 11
4.045524927835415
 21
2.744103890366496
 31
0.0
  0
SOLID
  5
1B1
330
166
100
AcDbEntity
  8
0
 62
     0
 48
0.3
100
AcDbTrace
 10
4.795524927835415
 20
2.764937223699829
 30
0.0
 11
4.795524927835415
 21
2.723270557033162
 31
0.0
 12
4.670524927835415
 22
2.744103890366496
 32
0.0
 13
4.670524927835415
 23
2.744103890366496
 33
0.0
  0
SOLID
  5
1B2
330
166
100
AcDbEntity
  8
0
 62
     0
 48
0.3
100
AcDbTrace
 10
4.170524927835415
 20
2.764937223699829
 30
0.0
 11
4.170524927835415
 21
2.723270557033162
 31
0.0
 12
4.295524927835415
 22
2.744103890366496
 32
0.0
 13
4.295524927835415
 23
2.744103890366496
 33
0.0
  0
MTEXT
  5
1B3
330
166
100
AcDbEntity
  8
0
 62
     0
 48
0.3
100
AcDbMText
 10
3.715941594502081
 20
2.744103890366496
 30
0.0
 40
0.125
 41
0.0
 71
     5
 72
     1
  1
\A1;0.375
 73
     1
 44
1.0
  0
POINT
  5
1B4
330
166
100
AcDbEntity
  8
Defpoints
 62
     0
 48
0.3
100
AcDbPoint
 10
4.670524927835415
 20
3.406944978663692
 30
0.0
  0
POINT
  5
1B5
330
166
100
AcDbEntity
  8
Defpoints
 62
     0
 48
0.3
100
AcDbPoint
 10
4.295524927835415
 20
3.406944978663692
 30
0.0
  0
POINT
  5
1B6
330
166
100
AcDbEntity
  8
Defpoints
 62
     0
 48
0.3
100
AcDbPoint
 10
4.295524927835415
 20
2.744103890366496
 30
0.0
  0
ENDBLK
  5
172
330
166
100
AcDbEntity
  8
0
 48
0.3
100
AcDbBlockEnd
  0
BLOCK
  5
19F
330
194
100
AcDbEntity
  8
0
 48
0.3
100
AcDbBlockBegin
  2
*D7
 70
     1
 10
0.0
 20
0.0
 30
0.0
  3
*D7
  1

  0
LINE
  5
1A2
330
194
100
AcDbEntity
  8
0
 62
     0
 48
0.3
370
    -2
100
AcDbLine
 10
4.295524927835415
 20
3.344444978663692
 30
0.0
 11
4.295524927835415
 21
2.928809475596348
 31
0.0
  0
LINE
  5
1A3
330
194
100
AcDbEntity
  8
0
 62
     0
 48
0.3
370
    -2
100
AcDbLine
 10
4.045524927835415
 20
3.344444978663692
 30
0.0
 11
4.045524927835415
 21
2.928809475596348
 31
0.0
  0
LINE
  5
1A4
330
194
100
AcDbEntity
  8
0
 62
     0
 48
0.3
370
    -2
100
AcDbLine
 10
4.420524927835415
 20
3.108809475596348
 30
0.0
 11
4.545524927835415
 21
3.108809475596348
 31
0.0
  0
LINE
  5
1A5
330
194
100
AcDbEntity
  8
0
 62
     0
 48
0.3
370
    -2
100
AcDbLine
 10
3.920524927835415
 20
3.108809475596348
 30
0.0
 11
3.795524927835415
 21
3.108809475596348
 31
0.0
  0
SOLID
  5
1A6
330
194
100
AcDbEntity
  8
0
 62
     0
 48
0.3
100
AcDbTrace
 10
4.420524927835415
 20
3.129642808929682
 30
0.0
 11
4.420524927835415
 21
3.087976142263015
 31
0.0
 12
4.295524927835415
 22
3.108809475596348
 32
0.0
 13
4.295524927835415
 23
3.108809475596348
 33
0.0
  0
SOLID
  5
1A7
330
194
100
AcDbEntity
  8
0
 62
     0
 48
0.3
100
AcDbTrace
 10
3.920524927835415
 20
3.129642808929682
 30
0.0
 11
3.920524927835415
 21
3.087976142263015
 31
0.0
 12
4.045524927835415
 22
3.108809475596348
 32
0.0
 13
4.045524927835415
 23
3.108809475596348
 33
0.0
  0
MTEXT
  5
1A8
330
194
100
AcDbEntity
  8
0
 62
     0
 48
0.3
100
AcDbMText
 10
3.476358261168748
 20
3.108809475596348
 30
0.0
 40
0.125
 41
0.0
 71
     5
 72
     1
  1
\A1;0.250
 73
     1
 44
1.0
  0
POINT
  5
1A9
330
194
100
AcDbEntity
  8
Defpoints
 62
     0
 48
0.3
100
AcDbPoint
 10
4.295524927835415
 20
3.406944978663692
 30
0.0
  0
POINT
  5
1AA
330
194
100
AcDbEntity
  8
Defpoints
 62
     0
 48
0.3
100
AcDbPoint
 10
4.045524927835415
 20
3.406944978663692
 30
0.0
  0
POINT
  5
1AB
330
194
100
AcDbEntity
  8
Defpoints
 62
     0
 48
0.3
100
AcDbPoint
 10
4.045524927835415
 20
3.108809475596348
 30
0.0
  0
ENDBLK
  5
1A0
330
194
100
AcDbEntity
  8
0
 48
0.3
100
AcDbBlockEnd
  0
BLOCK
  5
1C7
330
1BC
100
AcDbEntity
  8
0
 48
0.3
100
AcDbBlockBegin
  2
*D8
 70
     1
 10
0.0
 20
0.0
 30
0.0
  3
*D8
  1

  0
LINE
  5
1CA
330
1BC
100
AcDbEntity
  8
0
 62
     0
 48
0.3
370
    -2
100
AcDbLine
 10
5.818129549805085
 20
1.032782445496192
 30
0.0
 11
5.818129549805085
 21
0.0044011689291847
 31
0.0
  0
LINE
  5
1CB
330
1BC
100
AcDbEntity
  8
0
 62
     0
 48
0.3
370
    -2
100
AcDbLine
 10
1.443129549805085
 20
1.032782445496192
 30
0.0
 11
1.443129549805085
 21
0.0044011689291847
 31
0.0
  0
LINE
  5
1CC
330
1BC
100
AcDbEntity
  8
0
 62
     0
 48
0.3
370
    -2
100
AcDbLine
 10
5.693129549805085
 20
0.1844011689291847
 30
0.0
 11
3.970629549805085
 21
0.1844011689291847
 31
0.0
  0
LINE
  5
1CD
330
1BC
100
AcDbEntity
  8
0
 62
     0
 48
0.3
370
    -2
100
AcDbLine
 10
1.568129549805085
 20
0.1844011689291847
 30
0.0
 11
3.290629549805085
 21
0.1844011689291847
 31
0.0
  0
SOLID
  5
1CE
330
1BC
100
AcDbEntity
  8
0
 62
     0
 48
0.3
100
AcDbTrace
 10
5.693129549805085
 20
0.205234502262518
 30
0.0
 11
5.693129549805085
 21
0.1635678355958513
 31
0.0
 12
5.818129549805085
 22
0.1844011689291847
 32
0.0
 13
5.818129549805085
 23
0.1844011689291847
 33
0.0
  0
SOLID
  5
1CF
330
1BC
100
AcDbEntity
  8
0
 62
     0
 48
0.3
100
AcDbTrace
 10
1.568129549805085
 20
0.205234502262518
 30
0.0
 11
1.568129549805085
 21
0.1635678355958513
 31
0.0
 12
1.443129549805085
 22
0.1844011689291847
 32
0.0
 13
1.443129549805085
 23
0.1844011689291847
 33
0.0
  0
MTEXT
  5
1D0
330
1BC
100
AcDbEntity
  8
0
 62
     0
 48
0.3
100
AcDbMText
 10
3.630629549805085
 20
0.1844011689291847
 30
0.0
 40
0.125
 41
0.0
 71
     5
 72
     1
  1
\A1;4.375
 73
     1
 44
1.0
  0
POINT
  5
1D1
330
1BC
100
AcDbEntity
  8
Defpoints
 62
     0
 48
0.3
100
AcDbPoint
 10
5.818129549805085
 20
1.095282445496192
 30
0.0
  0
POINT
  5
1D2
330
1BC
100
AcDbEntity
  8
Defpoints
 62
     0
 48
0.3
100
AcDbPoint
 10
1.443129549805085
 20
1.095282445496192
 30
0.0
  0
POINT
  5
1D3
330
1BC
100
AcDbEntity
  8
Defpoints
 62
     0
 48
0.3
100
AcDbPoint
 10
1.443129549805085
 20
0.1844011689291847
 30
0.0
  0
ENDBLK
  5
1C8
330
1BC
100
AcDbEntity
  8
0
 48
0.3
100
AcDbBlockEnd
  0
BLOCK
  5
1E1
330
1D6
100
AcDbEntity
  8
0
 48
0.3
100
AcDbBlockBegin
  2
*D9
 70
     1
 10
0.0
 20
0.0
 30
0.0
  3
*D9
  1

  0
LINE
  5
1E4
330
1D6
100
AcDbEntity
  8
0
 62
     0
 48
0.3
370
    -2
100
AcDbLine
 10
1.443129549805085
 20
1.032782445496192
 30
0.0
 11
1.443129549805085
 21
0.4358712530808332
 31
0.0
  0
LINE
  5
1E5
330
1D6
100
AcDbEntity
  8
0
 62
     0
 48
0.3
370
    -2
100
AcDbLine
 10
1.818129549805085
 20
1.032782445496192
 30
0.0
 11
1.818129549805085
 21
0.4358712530808332
 31
0.0
  0
LINE
  5
1E6
330
1D6
100
AcDbEntity
  8
0
 62
     0
 48
0.3
370
    -2
100
AcDbLine
 10
1.318129549805085
 20
0.6158712530808331
 30
0.0
 11
1.193129549805085
 21
0.6158712530808331
 31
0.0
  0
LINE
  5
1E7
330
1D6
100
AcDbEntity
  8
0
 62
     0
 48
0.3
370
    -2
100
AcDbLine
 10
1.943129549805085
 20
0.6158712530808331
 30
0.0
 11
2.068129549805085
 21
0.6158712530808331
 31
0.0
  0
SOLID
  5
1E8
330
1D6
100
AcDbEntity
  8
0
 62
     0
 48
0.3
100
AcDbTrace
 10
1.318129549805085
 20
0.6367045864141664
 30
0.0
 11
1.318129549805085
 21
0.5950379197474997
 31
0.0
 12
1.443129549805085
 22
0.6158712530808331
 32
0.0
 13
1.443129549805085
 23
0.6158712530808331
 33
0.0
  0
SOLID
  5
1E9
330
1D6
100
AcDbEntity
  8
0
 62
     0
 48
0.3
100
AcDbTrace
 10
1.943129549805085
 20
0.6367045864141664
 30
0.0
 11
1.943129549805085
 21
0.5950379197474997
 31
0.0
 12
1.818129549805085
 22
0.6158712530808331
 32
0.0
 13
1.818129549805085
 23
0.6158712530808331
 33
0.0
  0
MTEXT
  5
1EA
330
1D6
100
AcDbEntity
  8
0
 62
     0
 48
0.3
100
AcDbMText
 10
2.397712883138419
 20
0.6158712530808331
 30
0.0
 40
0.125
 41
0.0
 71
     5
 72
     1
  1
\A1;0.375
 73
     1
 44
1.0
  0
POINT
  5
1EB
330
1D6
100
AcDbEntity
  8
Defpoints
 62
     0
 48
0.3
100
AcDbPoint
 10
1.443129549805085
 20
1.095282445496192
 30
0.0
  0
POINT
  5
1EC
330
1D6
100
AcDbEntity
  8
Defpoints
 62
     0
 48
0.3
100
AcDbPoint
 10
1.818129549805085
 20
1.095282445496192
 30
0.0
  0
POINT
  5
1ED
330
1D6
100
AcDbEntity
  8
Defpoints
 62
     0
 48
0.3
100
AcDbPoint
 10
1.818129549805085
 20
0.6158712530808331
 30
0.0
  0
ENDBLK
  5
1E2
330
1D6
100
AcDbEntity
  8
0
 48
0.3
100
AcDbBlockEnd
  0
BLOCK
  5
1FB
330
1F2
100
AcDbEntity
  8
0
 48
0.3
100
AcDbBlockBegin
  2
*D10
 70
     1
 10
0.0
 20
0.0
 30
0.0
  3
*D10
  1

  0
LINE
  5
1FE
330
1F2
100
AcDbEntity
  8
0
 62
     0
 48
0.3
370
    -2
100
AcDbLine
 10
-0.0921553240244752
 20
1.78243849161748
 30
0.0
 11
0.032844675975525
 21
1.78243849161748
 31
0.0
  0
LINE
  5
1FF
330
1F2
100
AcDbEntity
  8
0
 62
     0
 48
0.3
370
    -2
100
AcDbLine
 10
0.032844675975525
 20
1.78243849161748
 30
0.0
 11
0.2155216377448061
 21
1.534403786916008
 31
0.0
  0
MTEXT
  5
200
330
1F2
100
AcDbEntity
  8
0
 62
     0
 48
0.3
100
AcDbMText
 10
-0.4842386573578086
 20
1.78243849161748
 30
0.0
 40
0.125
 41
0.0
 71
     5
 72
     1
  1
\A1;\U+22050.375
 73
     1
 44
1.0
  0
SOLID
  5
201
330
1F2
100
AcDbEntity
  8
0
 62
     0
 48
0.3
100
AcDbTrace
 10
0.2322963938394605
 20
1.546758354320115
 30
0.0
 11
0.1987468816501517
 21
1.5220492195119
 31
0.0
 12
0.2896490421694504
 22
1.433755250348081
 32
0.0
 13
0.2896490421694504
 23
1.433755250348081
 33
0.0
  0
LINE
  5
202
330
1F2
100
AcDbEntity
  8
0
 62
     0
 48
0.3
370
    -2
100
AcDbLine
 10
0.3108401488064167
 20
1.282782445496191
 30
0.0
 11
0.4908401488064169
 21
1.282782445496192
 31
0.0
  0
LINE
  5
203
330
1F2
100
AcDbEntity
  8
0
 62
     0
 48
0.3
370
    -2
100
AcDbLine
 10
0.4008401488064167
 20
1.192782445496191
 30
0.0
 11
0.4008401488064167
 21
1.372782445496191
 31
0.0
  0
POINT
  5
204
330
1F2
100
AcDbEntity
  8
Defpoints
 62
     0
 48
0.3
100
AcDbPoint
 10
0.2896490421694504
 20
1.433755250348081
 30
0.0
  0
POINT
  5
205
330
1F2
100
AcDbEntity
  8
Defpoints
 62
     0
 48
0.3
100
AcDbPoint
 10
0.5120312554433829
 20
1.131809640644302
 30
0.0
  0
ENDBLK
  5
1FC
330
1F2
100
AcDbEntity
  8
0
 48
0.3
100
AcDbBlockEnd
  0
ENDSEC
  0
SECTION
  2
ENTITIES
  0
VIEWPORT
  5
77
330
58
100
AcDbEntity
 67
     1
  8
0
100
AcDbViewport
 10
4.733322163723009
 20
2.368673137016301
 30
0.0
 40
20.81567785293225
 41
8.631328489017597
 68
     1
 69
     1
 12
4.733322163723009
 22
2.368673137016301
 13
0.0
 23
0.0
 14
0.5
 24
0.5
 15
0.5
 25
0.5
 16
0.0
 26
0.0
 36
1.0
 17
0.0
 27
0.0
 37
0.0
 42
50.0
 43
0.0
 44
0.0
 45
8.631328489017597
 50
0.0
 51
0.0
 72
   100
 90
    32800
  1

281
     0
 71
     1
 74
     0
110
0.0
120
0.0
130
0.0
111
1.0
121
0.0
131
0.0
112
0.0
122
1.0
132
0.0
 79
     0
146
0.0
  0
LWPOLYLINE
  5
86
330
58
100
AcDbEntity
 67
     1
  8
0
100
AcDbPolyline
 90
        4
 70
     1
 43
0.0
 10
-1.439262267973589
 20
6.396855050259421
 10
8.966538218833356
 20
6.396855050259421
 10
8.966538218833356
 20
-1.41285528304607
 10
-1.439262267973589
 20
-1.41285528304607
  0
LINE
  5
8A
330
58
100
AcDbEntity
 67
     1
  8
0
100
AcDbLine
 10
8.966538218833356
 20
-1.41285528304607
 30
0.0
 11
8.966538218833356
 21
-0.4128552830460706
 31
0.0
  0
LINE
  5
8B
330
58
100
AcDbEntity
 67
     1
  8
0
100
AcDbLine
 10
8.966538218833356
 20
-0.4128552830460706
 30
0.0
 11
6.466538218833356
 21
-0.4128552830460703
 31
0.0
  0
LINE
  5
8C
330
58
100
AcDbEntity
 67
     1
  8
0
100
AcDbLine
 10
6.466538218833356
 20
-0.4128552830460703
 30
0.0
 11
4.966538218833356
 21
-0.4128552830460701
 31
0.0
  0
LINE
  5
8D
330
58
100
AcDbEntity
 67
     1
  8
0
100
AcDbLine
 10
4.966538218833356
 20
-0.4128552830460701
 30
0.0
 11
4.966538218833356
 21
-1.41285528304607
 31
0.0
  0
LINE
  5
8E
330
58
100
AcDbEntity
 67
     1
  8
0
100
AcDbLine
 10
6.466538218833356
 20
-0.4128552830460703
 30
0.0
 11
6.466538218833356
 21
-1.40425062323316
 31
0.0
  0
MTEXT
  5
8F
330
58
100
AcDbEntity
 67
     1
  8
0
100
AcDbMText
 10
5.02064872125895
 20
-0.5532836662080878
 30
0.0
 40
0.1
 41
1.5
 71
     1
 72
     5
  1
  Tolerances\P.XXXX = +/- .001\P.XXX  = +/- .005\P.XX   = +/- .015
 73
     1
 44
1.0
  0
MTEXT
  5
AA
330
58
100
AcDbEntity
 67
     1
  8
0
 48
0.3
100
AcDbMText
 10
6.688767870543038
 20
-0.5779304272488833
 30
0.0
 40
0.1
 41
2.5
 71
     1
 72
     5
  1
G0704 Spindle Upper\PSpanner Wrench\PDaniel E. Kemp\P{\fArial|b0|i0|c0|p32;\H1.625x;©\fMS Shell Dlg|b0|i0|c0|p32;\H0.6538x; }07-30-2010
 73
     1
 44
1.0
  0
MTEXT
  5
AC
330
58
100
AcDbEntity
 67
     1
  8
0
 48
0.3
100
AcDbMText
 10
-0.8330378939457148
 20
-0.9104262006358538
 30
0.0
 40
0.1625
 41
9.997099999999999
 71
     1
 72
     5
  1
{\fArial|b0|i0|c0|p32;© Daniel E. Kemp 2010}
 73
     1
 44
1.0
  0
CIRCLE
  5
B2
102
{ACAD_REACTORS
330
FC
102
}
330
58
100
AcDbEntity
 67
     1
  8
0
 48
0.3
100
AcDbCircle
 10
1.925394540717036
 20
4.194444978663693
 30
0.0
 40
0.875
  0
CIRCLE
  5
B3
102
{ACAD_REACTORS
330
112
102
}
330
58
100
AcDbEntity
 67
     1
  8
0
 48
0.3
100
AcDbCircle
 10
1.925394540717036
 20
4.194444978663693
 30
0.0
 40
0.5
  0
LINE
  5
B5
330
58
100
AcDbEntity
 67
     1
  8
0
 48
0.3
100
AcDbLine
 10
4.295524927835415
 20
5.069444978663693
 30
0.0
 11
5.795524927835415
 21
5.069444978663693
 31
0.0
  0
LINE
  5
B6
330
58
100
AcDbEntity
 67
     1
  8
0
 48
0.3
100
AcDbLine
 10
5.795524927835415
 20
5.069444978663693
 30
0.0
 11
5.795524927835415
 21
3.319444978663693
 31
0.0
  0
LINE
  5
B7
102
{ACAD_REACTORS
330
14A
330
164
102
}
330
58
100
AcDbEntity
 67
     1
  8
0
 48
0.3
100
AcDbLine
 10
5.795524927835415
 20
3.319444978663693
 30
0.0
 11
4.295524927835415
 21
3.319444978663693
 31
0.0
  0
LINE
  5
B8
330
58
100
AcDbEntity
 67
     1
  8
0
 48
0.3
100
AcDbLine
 10
4.295524927835415
 20
3.319444978663693
 30
0.0
 11
4.295524927835415
 21
5.069444978663693
 31
0.0
  0
LINE
  5
BA
330
58
100
AcDbEntity
 67
     1
  8
0
  6
HIDDENX2
 48
0.3
100
AcDbLine
 10
4.295524927835415
 20
4.694444978663693
 30
0.0
 11
5.795524927835415
 21
4.694444978663693
 31
0.0
  0
LINE
  5
BC
330
58
100
AcDbEntity
 67
     1
  8
0
  6
HIDDENX2
 48
0.3
100
AcDbLine
 10
4.295524927835415
 20
3.694444978663693
 30
0.0
 11
5.795524927835415
 21
3.694444978663693
 31
0.0
  0
CIRCLE
  5
BF
102
{ACAD_REACTORS
330
12C
330
130
102
}
330
58
100
AcDbEntity
 67
     1
  8
0
 48
0.3
100
AcDbCircle
 10
1.925394540717036
 20
4.902444978663693
 30
0.0
 40
0.0795
  0
CIRCLE
  5
C0
102
{ACAD_REACTORS
330
12C
102
}
330
58
100
AcDbEntity
 67
     1
  8
0
 48
0.3
100
AcDbCircle
 10
1.925394540717036
 20
3.486444978663692
 30
0.0
 40
0.0795
  0
LINE
  5
C2
330
58
100
AcDbEntity
 67
     1
  8
0
  6
threads
 48
0.3
100
AcDbLine
 10
4.295524927835415
 20
4.981944978663693
 30
0.0
 11
4.670524927835415
 21
4.981944978663693
 31
0.0
  0
LINE
  5
C5
330
58
100
AcDbEntity
 67
     1
  8
0
  6
threads
 48
0.3
100
AcDbLine
 10
4.295524927835415
 20
4.822944978663692
 30
0.0
 11
4.670524927835415
 21
4.822944978663692
 31
0.0
  0
LINE
  5
C7
330
58
100
AcDbEntity
 67
     1
  8
0
  6
threads
 48
0.3
100
AcDbLine
 10
4.295524927835415
 20
3.565944978663692
 30
0.0
 11
4.670524927835415
 21
3.565944978663692
 31
0.0
  0
LINE
  5
C9
102
{ACAD_REACTORS
330
17E
330
1AC
102
}
330
58
100
AcDbEntity
 67
     1
  8
0
  6
threads
 48
0.3
100
AcDbLine
 10
4.295524927835415
 20
3.406944978663692
 30
0.0
 11
4.670524927835415
 21
3.406944978663692
 31
0.0
  0
LINE
  5
CA
330
58
100
AcDbEntity
 67
     1
  8
0
  6
threads
 48
0.3
100
AcDbLine
 10
4.295524927835415
 20
4.981944978663693
 30
0.0
 11
4.045524927835415
 21
4.981944978663693
 31
0.0
  0
LINE
  5
CB
330
58
100
AcDbEntity
 67
     1
  8
0
  6
threads
 48
0.3
100
AcDbLine
 10
4.295524927835415
 20
4.822944978663692
 30
0.0
 11
4.045524927835415
 21
4.822944978663692
 31
0.0
  0
LINE
  5
CC
330
58
100
AcDbEntity
 67
     1
  8
0
  6
threads
 48
0.3
100
AcDbLine
 10
4.295524927835415
 20
3.565944978663692
 30
0.0
 11
4.045524927835415
 21
3.565944978663692
 31
0.0
  0
LINE
  5
CD
102
{ACAD_REACTORS
330
1AC
102
}
330
58
100
AcDbEntity
 67
     1
  8
0
  6
threads
 48
0.3
100
AcDbLine
 10
4.295524927835415
 20
3.406944978663692
 30
0.0
 11
4.045524927835415
 21
3.406944978663692
 31
0.0
  0
LINE
  5
CE
330
58
100
AcDbEntity
 67
     1
  8
0
 48
0.3
100
AcDbLine
 10
4.045524927835415
 20
4.981944978663693
 30
0.0
 11
4.045524927835415
 21
4.822944978663692
 31
0.0
  0
LINE
  5
CF
330
58
100
AcDbEntity
 67
     1
  8
0
 48
0.3
100
AcDbLine
 10
4.045524927835415
 20
3.565944978663692
 30
0.0
 11
4.045524927835415
 21
3.406944978663692
 31
0.0
  0
LINE
  5
D0
330
58
100
AcDbEntity
 67
     1
  8
0
  6
HIDDENX2
 48
0.3
100
AcDbLine
 10
4.670524927835415
 20
4.981944978663693
 30
0.0
 11
4.670524927835415
 21
4.822944978663692
 31
0.0
  0
LINE
  5
D1
330
58
100
AcDbEntity
 67
     1
  8
0
  6
HIDDENX2
 48
0.3
100
AcDbLine
 10
4.670524927835415
 20
3.565944978663692
 30
0.0
 11
4.670524927835415
 21
3.406944978663692
 31
0.0
  0
CIRCLE
  5
D4
102
{ACAD_REACTORS
330
164
330
1BA
102
}
330
58
100
AcDbEntity
 67
     1
  8
0
 48
0.3
100
AcDbCircle
 10
5.295524927835415
 20
4.194444978663693
 30
0.0
 40
0.1875
  0
LINE
  5
D7
330
58
100
AcDbEntity
 67
     1
  8
0
  6
threads
 48
0.3
100
AcDbLine
 10
2.780069186415619
 20
4.381944978663693
 30
0.0
 11
2.388906946160514
 21
4.381944978663693
 31
0.0
  0
LINE
  5
D9
330
58
100
AcDbEntity
 67
     1
  8
0
  6
threads
 48
0.3
100
AcDbLine
 10
1.461882135273557
 20
4.381944978663693
 30
0.0
 11
1.070719895018452
 21
4.381944978663693
 31
0.0
  0
LINE
  5
DB
330
58
100
AcDbEntity
 67
     1
  8
0
  6
threads
 48
0.3
100
AcDbLine
 10
2.78006918641562
 20
4.006944978663693
 30
0.0
 11
2.388906946160515
 21
4.006944978663693
 31
0.0
  0
LINE
  5
DD
330
58
100
AcDbEntity
 67
     1
  8
0
  6
threads
 48
0.3
100
AcDbLine
 10
1.461882135273556
 20
4.006944978663693
 30
0.0
 11
1.070719895018452
 21
4.006944978663693
 31
0.0
  0
LINE
  5
DE
330
58
100
AcDbEntity
 67
     1
  8
0
  6
threads
 48
0.3
100
AcDbLine
 10
1.443129549805085
 20
1.470282445496192
 30
0.0
 11
1.818129549805085
 21
1.470282445496192
 31
0.0
  0
LINE
  5
E0
330
58
100
AcDbEntity
 67
     1
  8
0
  6
threads
 48
0.3
100
AcDbLine
 10
1.443129549805085
 20
1.095282445496192
 30
0.0
 11
1.818129549805085
 21
1.095282445496192
 31
0.0
  0
LINE
  5
E1
102
{ACAD_REACTORS
330
1D4
330
1EE
330
20E
102
}
330
58
100
AcDbEntity
 67
     1
  8
0
 48
0.3
100
AcDbLine
 10
1.443129549805085
 20
1.470282445496192
 30
0.0
 11
1.443129549805085
 21
1.095282445496192
 31
0.0
  0
LINE
  5
E2
330
58
100
AcDbEntity
 67
     1
  8
0
 48
0.3
100
AcDbLine
 10
1.818129549805085
 20
1.470282445496192
 30
0.0
 11
1.818129549805085
 21
1.095282445496192
 31
0.0
  0
LINE
  5
E3
102
{ACAD_REACTORS
330
1D4
330
1EE
102
}
330
58
100
AcDbEntity
 67
     1
  8
0
 48
0.3
100
AcDbLine
 10
1.818129549805085
 20
1.095282445496192
 30
0.0
 11
5.818129549805085
 21
1.095282445496192
 31
0.0
  0
LINE
  5
E4
330
58
100
AcDbEntity
 67
     1
  8
0
 48
0.3
100
AcDbLine
 10
5.818129549805085
 20
1.095282445496192
 30
0.0
 11
5.818129549805085
 21
1.470282445496192
 31
0.0
  0
LINE
  5
E5
330
58
100
AcDbEntity
 67
     1
  8
0
 48
0.3
100
AcDbLine
 10
5.818129549805085
 20
1.470282445496192
 30
0.0
 11
1.818129549805085
 21
1.470282445496192
 31
0.0
  0
DIMENSION
  5
E6
102
{ACAD_XDICTIONARY
360
F3
102
}
102
{ACAD_REACTORS
330
FC
102
}
330
58
100
AcDbEntity
 67
     1
  8
0
 48
0.3
100
AcDbDimension
  2
*D1
 10
2.348101588428695
 20
3.428322435061891
 30
0.0
 11
0.6085814697179801
 21
5.681649581810798
 31
0.0
 70
   163
 71
     5
 42
1.749999999999999
  3
Standard
100
AcDbDiametricDimension
 15
1.502687493005377
 25
4.960567522265494
 35
0.0
 40
0.0
1001
ACAD
1000
DSTYLE
1002
{
1070
   288
1070
     1
1002
}
  0
DIMENSION
  5
FD
102
{ACAD_XDICTIONARY
360
109
102
}
102
{ACAD_REACTORS
330
112
102
}
330
58
100
AcDbEntity
 67
     1
  8
0
 48
0.3
100
AcDbDimension
  2
*D2
 10
2.324614429234902
 20
3.893407637770934
 30
0.0
 11
0.3254185797208722
 21
5.042434643953219
 31
0.0
 70
   163
 71
     5
 42
0.9999999999999996
  3
Standard
100
AcDbDiametricDimension
 15
1.526174652199169
 25
4.495482319556449
 35
0.0
 40
0.0
1001
ACAD
1000
DSTYLE
1002
{
1070
   288
1070
     1
1002
}
  0
DIMENSION
  5
113
102
{ACAD_XDICTIONARY
360
121
102
}
102
{ACAD_REACTORS
330
12C
102
}
330
58
100
AcDbEntity
 67
     1
  8
0
 48
0.3
100
AcDbDimension
  2
*D3
 10
3.280804787851465
 20
3.486444978663692
 30
0.0
 11
3.280804787851465
 21
4.194444978663693
 31
0.0
 70
    32
 71
     5
 42
1.415999999999999
  3
Standard
100
AcDbAlignedDimension
 13
1.925394540717036
 23
4.902444978663693
 33
0.0
 14
1.925394540717036
 24
3.486444978663692
 34
0.0
 50
90.0
100
AcDbRotatedDimension
  0
LEADER
  5
12D
102
{ACAD_XDICTIONARY
360
12F
102
}
102
{ACAD_REACTORS
330
130
102
}
330
58
100
AcDbEntity
 67
     1
  8
0
 48
0.3
100
AcDbLeader
  3
Standard
 73
     0
 40
0.1250000000000001
 41
3.145833333333334
 76
     3
 10
1.925394540717036
 20
4.902444978663693
 30
0.0
 10
2.288816950086221
 20
5.505865481584439
 30
0.0
 10
2.5448137892405
 20
5.505865481584439
 30
0.0
340
12E
213
0.0
223
-0.0625
233
0.0
1001
ACAD
1000
DSTYLE
1002
{
1070
   147
1040
0.09
1070
    77
1070
     0
1002
}
  0
MTEXT
  5
12E
102
{ACAD_REACTORS
330
12D
102
}
330
58
100
AcDbEntity
 67
     1
  8
0
 48
0.3
100
AcDbMText
 10
2.634813789240499
 20
5.568365481584439
 30
0.0
 40
0.125
 41
0.0
 71
     1
 72
     1
  1
\A1;(2) 10-32 on 1.417 (36mm) B.C.
 73
     1
 44
1.0
  0
DIMENSION
  5
131
102
{ACAD_XDICTIONARY
360
13F
102
}
102
{ACAD_REACTORS
330
14A
102
}
330
58
100
AcDbEntity
 67
     1
  8
0
 48
0.3
100
AcDbDimension
  2
*D4
 10
5.795524927835415
 20
2.293810437512412
 30
0.0
 11
5.045524927835415
 21
2.293810437512412
 31
0.0
 70
   160
 71
     5
 42
1.5
  3
Standard
100
AcDbAlignedDimension
 13
4.295524927835415
 23
3.319444978663693
 33
0.0
 14
5.795524927835415
 24
3.319444978663693
 34
0.0
100
AcDbRotatedDimension
  0
DIMENSION
  5
14B
102
{ACAD_XDICTIONARY
360
159
102
}
102
{ACAD_REACTORS
330
164
102
}
330
58
100
AcDbEntity
 67
     1
  8
0
 48
0.3
100
AcDbDimension
  2
*D5
 10
5.795524927835415
 20
2.9809664836337
 30
0.0
 11
6.229274927835414
 21
2.9809664836337
 31
0.0
 70
    32
 71
     5
 42
0.4999999999999992
  3
Standard
100
AcDbAlignedDimension
 13
5.295524927835415
 23
4.194444978663693
 33
0.0
 14
5.795524927835415
 24
3.319444978663693
 34
0.0
100
AcDbRotatedDimension
  0
DIMENSION
  5
165
102
{ACAD_XDICTIONARY
360
173
102
}
102
{ACAD_REACTORS
330
17E
102
}
330
58
100
AcDbEntity
 67
     1
  8
0
 48
0.3
100
AcDbDimension
  2
*D6
 10
4.295524927835415
 20
2.744103890366496
 30
0.0
 11
3.715941594502081
 21
2.744103890366496
 31
0.0
 70
   160
 71
     5
 42
0.375
  3
Standard
100
AcDbAlignedDimension
 13
4.670524927835415
 23
3.406944978663692
 33
0.0
 14
4.295524927835415
 24
3.406944978663692
 34
0.0
100
AcDbRotatedDimension
  0
DIMENSION
  5
193
102
{ACAD_XDICTIONARY
360
1A1
102
}
102
{ACAD_REACTORS
330
1AC
102
}
330
58
100
AcDbEntity
 67
     1
  8
0
 48
0.3
100
AcDbDimension
  2
*D7
 10
4.045524927835415
 20
3.108809475596348
 30
0.0
 11
3.476358261168748
 21
3.108809475596348
 31
0.0
 70
    32
 71
     5
 42
0.25
  3
Standard
100
AcDbAlignedDimension
 13
4.295524927835415
 23
3.406944978663692
 33
0.0
 14
4.045524927835415
 24
3.406944978663692
 34
0.0
100
AcDbRotatedDimension
  0
LEADER
  5
1B7
102
{ACAD_XDICTIONARY
360
1B9
102
}
102
{ACAD_REACTORS
330
1BA
102
}
330
58
100
AcDbEntity
 67
     1
  8
0
 48
0.3
100
AcDbLeader
  3
Standard
 73
     0
 40
0.1250000000000001
 41
1.708333333333332
 76
     3
 10
5.295524927835415
 20
4.194444978663693
 30
0.0
 10
6.048770793219894
 20
4.579003828277649
 30
0.0
 10
6.224768623447786
 20
4.579003828277649
 30
0.0
340
1B8
213
0.0
223
-0.0625
233
0.0
1001
ACAD
1000
DSTYLE
1002
{
1070
   147
1040
0.09
1070
    77
1070
     0
1002
}
  0
MTEXT
  5
1B8
102
{ACAD_REACTORS
330
1B7
102
}
330
58
100
AcDbEntity
 67
     1
  8
0
 48
0.3
100
AcDbMText
 10
6.314768623447786
 20
4.641503828277649
 30
0.0
 40
0.125
 41
0.0
 71
     1
 72
     1
  1
\A1;(2) 3/8-16 thru
 73
     1
 44
1.0
  0
DIMENSION
  5
1BB
102
{ACAD_XDICTIONARY
360
1C9
102
}
102
{ACAD_REACTORS
330
1D4
102
}
330
58
100
AcDbEntity
 67
     1
  8
0
 48
0.3
100
AcDbDimension
  2
*D8
 10
1.443129549805085
 20
0.1844011689291847
 30
0.0
 11
3.630629549805085
 21
0.1844011689291847
 31
0.0
 70
    32
 71
     5
 42
4.375
  3
Standard
100
AcDbAlignedDimension
 13
5.818129549805085
 23
1.095282445496192
 33
0.0
 14
1.443129549805085
 24
1.095282445496192
 34
0.0
100
AcDbRotatedDimension
  0
DIMENSION
  5
1D5
102
{ACAD_XDICTIONARY
360
1E3
102
}
102
{ACAD_REACTORS
330
1EE
102
}
330
58
100
AcDbEntity
 67
     1
  8
0
 48
0.3
100
AcDbDimension
  2
*D9
 10
1.818129549805085
 20
0.6158712530808331
 30
0.0
 11
2.397712883138419
 21
0.6158712530808331
 31
0.0
 70
    32
 71
     5
 42
0.375
  3
Standard
100
AcDbAlignedDimension
 13
1.443129549805085
 23
1.095282445496192
 33
0.0
 14
1.818129549805085
 24
1.095282445496192
 34
0.0
100
AcDbRotatedDimension
  0
CIRCLE
  5
1F0
102
{ACAD_REACTORS
330
206
102
}
330
58
100
AcDbEntity
 67
     1
  8
0
 48
0.3
100
AcDbCircle
 10
0.4008401488064166
 20
1.282782445496192
 30
0.0
 40
0.1875
  0
DIMENSION
  5
1F1
102
{ACAD_XDICTIONARY
360
1FD
102
}
102
{ACAD_REACTORS
330
206
102
}
330
58
100
AcDbEntity
 67
     1
  8
0
 48
0.3
100
AcDbDimension
  2
*D10
 10
0.5120312554433829
 20
1.131809640644302
 30
0.0
 11
-0.4842386573578086
 21
1.78243849161748
 31
0.0
 70
   163
 71
     5
 42
0.3749999999999999
  3
Standard
100
AcDbDiametricDimension
 15
0.2896490421694504
 25
1.433755250348081
 35
0.0
 40
0.0
1001
ACAD
1000
DSTYLE
1002
{
1070
   288
1070
     1
1002
}
  0
LEADER
  5
20B
102
{ACAD_XDICTIONARY
360
20D
102
}
102
{ACAD_REACTORS
330
20E
102
}
330
58
100
AcDbEntity
 67
     1
  8
0
 48
0.3
100
AcDbLeader
  3
Standard
 73
     0
 40
0.125
 41
0.6666666666666666
 76
     3
 10
1.443129549805085
 20
1.470282445496192
 30
0.0
 10
0.9448334518652004
 20
2.245869329248701
 30
0.0
 10
0.7688356216373152
 20
2.245869329248701
 30
0.0
340
20C
213
0.0
223
0.0625
233
0.0
1001
ACAD
1000
DSTYLE
1002
{
1070
   147
1040
0.09
1070
    77
1070
     0
1002
}
  0
MTEXT
  5
20C
102
{ACAD_REACTORS
330
20B
102
}
330
58
100
AcDbEntity
 67
     1
  8
0
 48
0.3
100
AcDbMText
 10
0.6788356216373152
 20
2.183369329248701
 30
0.0
 40
0.125
 41
0.0
 71
     9
 72
     1
  1
\A1;3/8-16
 73
     1
 44
1.0
  0
ENDSEC
  0
SECTION
  2
OBJECTS
  0
DICTIONARY
  5
C
330
0
100
AcDbDictionary
281
     1
  3
ACAD_GROUP
350
D
  3
ACAD_LAYOUT
350
1A
  3
ACAD_MLINESTYLE
350
17
  3
ACAD_PLOTSETTINGS
350
19
  3
ACAD_PLOTSTYLENAME
350
E
  3
AcadDim
350
207
  3
AcDbVariableDictionary
350
66
  0
DICTIONARY
  5
F3
330
E6
100
AcDbDictionary
280
     1
281
     1
  3
ACAD_DIMASSOC
360
FC
  0
DICTIONARY
  5
109
330
FD
100
AcDbDictionary
280
     1
281
     1
  3
ACAD_DIMASSOC
360
112
  0
DICTIONARY
  5
121
330
113
100
AcDbDictionary
280
     1
281
     1
  3
ACAD_DIMASSOC
360
12C
  0
DICTIONARY
  5
12F
330
12D
100
AcDbDictionary
280
     1
281
     1
  3
ACAD_DIMASSOC
360
130
  0
DICTIONARY
  5
13F
330
131
100
AcDbDictionary
280
     1
281
     1
  3
ACAD_DIMASSOC
360
14A
  0
DICTIONARY
  5
159
330
14B
100
AcDbDictionary
280
     1
281
     1
  3
ACAD_DIMASSOC
360
164
  0
DICTIONARY
  5
173
330
165
100
AcDbDictionary
280
     1
281
     1
  3
ACAD_DIMASSOC
360
17E
  0
DICTIONARY
  5
1A1
330
193
100
AcDbDictionary
280
     1
281
     1
  3
ACAD_DIMASSOC
360
1AC
  0
DICTIONARY
  5
1B9
330
1B7
100
AcDbDictionary
280
     1
281
     1
  3
ACAD_DIMASSOC
360
1BA
  0
DICTIONARY
  5
1C9
330
1BB
100
AcDbDictionary
280
     1
281
     1
  3
ACAD_DIMASSOC
360
1D4
  0
DICTIONARY
  5
1E3
330
1D5
100
AcDbDictionary
280
     1
281
     1
  3
ACAD_DIMASSOC
360
1EE
  0
DICTIONARY
  5
1FD
330
1F1
100
AcDbDictionary
280
     1
281
     1
  3
ACAD_DIMASSOC
360
206
  0
DICTIONARY
  5
20D
330
20B
100
AcDbDictionary
280
     1
281
     1
  3
ACAD_DIMASSOC
360
20E
  0
DICTIONARY
  5
D
102
{ACAD_REACTORS
330
C
102
}
330
C
100
AcDbDictionary
281
     1
  0
DICTIONARY
  5
1A
102
{ACAD_REACTORS
330
C
102
}
330
C
100
AcDbDictionary
281
     1
  3
Layout1
350
59
  3
Layout2
350
5E
  3
Model
350
22
  0
DICTIONARY
  5
17
102
{ACAD_REACTORS
330
C
102
}
330
C
100
AcDbDictionary
281
     1
  3
Standard
350
18
  0
DICTIONARY
  5
19
102
{ACAD_REACTORS
330
C
102
}
330
C
100
AcDbDictionary
281
     1
  0
ACDBDICTIONARYWDFLT
  5
E
102
{ACAD_REACTORS
330
C
102
}
330
C
100
AcDbDictionary
281
     1
  3
Normal
350
F
100
AcDbDictionaryWithDefault
340
F
  0
XRECORD
  5
207
102
{ACAD_REACTORS
330
C
102
}
330
C
100
AcDbXrecord
280
     1
 90
   990106
  3

 60
     0
 61
     0
 62
     1
 63
     3
 64
     0
 65
     0
 66
     0
 67
     3
 68
     1
 69
     0
 70
     0
 71
     0
 72
     0
 40
0.0
170
     0
340
20C
  0
DICTIONARY
  5
66
102
{ACAD_REACTORS
330
C
102
}
330
C
100
AcDbDictionary
281
     1
  3
DIMASSOC
350
67
  3
HIDETEXT
350
6B
  0
DIMASSOC
  5
FC
102
{ACAD_REACTORS
330
F3
102
}
330
F3
100
AcDbDimAssoc
330
E6
 90
        2
 70
     0
 71
     0
  1
AcDbOsnapPointRef
 72
     3
331
B2
 73
     2
 91
        0
 40
0.0
 10
0.0
 20
0.0
 30
0.0
 75
     0
  0
DIMASSOC
  5
112
102
{ACAD_REACTORS
330
109
102
}
330
109
100
AcDbDimAssoc
330
FD
 90
        2
 70
     0
 71
     0
  1
AcDbOsnapPointRef
 72
     3
331
B3
 73
     2
 91
        0
 40
0.0
 10
0.0
 20
0.0
 30
0.0
 75
     0
  0
DIMASSOC
  5
12C
102
{ACAD_REACTORS
330
121
102
}
330
121
100
AcDbDimAssoc
330
113
 90
        3
 70
     0
 71
     0
  1
AcDbOsnapPointRef
 72
     3
331
BF
 73
     2
 91
        0
 40
0.0
 10
1.925394540717036
 20
4.902444978663693
 30
0.0
 75
     0
  1
AcDbOsnapPointRef
 72
     3
331
C0
 73
     2
 91
        0
 40
0.0
 10
1.925394540717036
 20
3.486444978663692
 30
0.0
 75
     0
  0
DIMASSOC
  5
130
102
{ACAD_REACTORS
330
12F
102
}
330
12F
100
AcDbDimAssoc
330
12D
 90
        1
 70
     0
 71
     0
  1
AcDbOsnapPointRef
 72
     3
331
BF
 73
     2
 91
        0
 40
0.0
 10
1.925394540717036
 20
4.902444978663693
 30
0.0
 75
     0
  0
DIMASSOC
  5
14A
102
{ACAD_REACTORS
330
13F
102
}
330
13F
100
AcDbDimAssoc
330
131
 90
        3
 70
     0
 71
     0
  1
AcDbOsnapPointRef
 72
     1
331
B7
 73
     2
 91
        0
 40
1.0
 10
4.295524927835415
 20
3.319444978663693
 30
0.0
 75
     0
  1
AcDbOsnapPointRef
 72
    13
331
B7
 73
     2
 91
        0
 40
0.0
 10
5.795524927835415
 20
3.319444978663693
 30
0.0
 75
     0
  0
DIMASSOC
  5
164
102
{ACAD_REACTORS
330
159
102
}
330
159
100
AcDbDimAssoc
330
14B
 90
        3
 70
     0
 71
     0
  1
AcDbOsnapPointRef
 72
     3
331
D4
 73
     2
 91
        0
 40
0.0
 10
5.295524927835415
 20
4.194444978663693
 30
0.0
 75
     0
  1
AcDbOsnapPointRef
 72
    13
331
B7
 73
     2
 91
        0
 40
0.0
 10
5.795524927835415
 20
3.319444978663693
 30
0.0
 75
     0
  0
DIMASSOC
  5
17E
102
{ACAD_REACTORS
330
173
102
}
330
173
100
AcDbDimAssoc
330
165
 90
        3
 70
     0
 71
     0
  1
AcDbOsnapPointRef
 72
     1
331
C9
 73
     2
 91
        0
 40
1.0
 10
4.670524927835415
 20
3.406944978663692
 30
0.0
 75
     0
  1
AcDbOsnapPointRef
 72
    13
331
C9
 73
     2
 91
        0
 40
0.0
 10
4.295524927835415
 20
3.406944978663692
 30
0.0
 75
     0
  0
DIMASSOC
  5
1AC
102
{ACAD_REACTORS
330
1A1
102
}
330
1A1
100
AcDbDimAssoc
330
193
 90
        3
 70
     0
 71
     0
  1
AcDbOsnapPointRef
 72
    13
331
C9
 73
     2
 91
        0
 40
0.0
 10
4.295524927835415
 20
3.406944978663692
 30
0.0
 75
     0
  1
AcDbOsnapPointRef
 72
     1
331
CD
 73
     2
 91
        0
 40
1.0
 10
4.045524927835415
 20
3.406944978663692
 30
0.0
 75
     0
  0
DIMASSOC
  5
1BA
102
{ACAD_REACTORS
330
1B9
102
}
330
1B9
100
AcDbDimAssoc
330
1B7
 90
        1
 70
     0
 71
     0
  1
AcDbOsnapPointRef
 72
     3
331
D4
 73
     2
 91
        0
 40
0.0
 10
5.295524927835415
 20
4.194444978663693
 30
0.0
 75
     0
  0
DIMASSOC
  5
1D4
102
{ACAD_REACTORS
330
1C9
102
}
330
1C9
100
AcDbDimAssoc
330
1BB
 90
        3
 70
     0
 71
     0
  1
AcDbOsnapPointRef
 72
     1
331
E3
 73
     2
 91
        0
 40
1.0
 10
5.818129549805085
 20
1.095282445496192
 30
0.0
 75
     0
  1
AcDbOsnapPointRef
 72
     1
331
E1
 73
     2
 91
        0
 40
1.0
 10
1.443129549805085
 20
1.095282445496192
 30
0.0
 75
     0
  0
DIMASSOC
  5
1EE
102
{ACAD_REACTORS
330
1E3
102
}
330
1E3
100
AcDbDimAssoc
330
1D5
 90
        3
 70
     0
 71
     0
  1
AcDbOsnapPointRef
 72
     1
331
E1
 73
     2
 91
        0
 40
1.0
 10
1.443129549805085
 20
1.095282445496192
 30
0.0
 75
     0
  1
AcDbOsnapPointRef
 72
    13
331
E3
 73
     2
 91
        0
 40
0.0
 10
1.818129549805085
 20
1.095282445496192
 30
0.0
 75
     0
  0
DIMASSOC
  5
206
102
{ACAD_REACTORS
330
1FD
102
}
330
1FD
100
AcDbDimAssoc
330
1F1
 90
        2
 70
     0
 71
     0
  1
AcDbOsnapPointRef
 72
     3
331
1F0
 73
     2
 91
        0
 40
0.0
 10
0.0
 20
0.0
 30
0.0
 75
     0
  0
DIMASSOC
  5
20E
102
{ACAD_REACTORS
330
20D
102
}
330
20D
100
AcDbDimAssoc
330
20B
 90
        1
 70
     0
 71
     0
  1
AcDbOsnapPointRef
 72
    13
331
E1
 73
     2
 91
        0
 40
0.0
 10
1.443129549805085
 20
1.470282445496192
 30
0.0
 75
     0
  0
LAYOUT
  5
59
102
{ACAD_REACTORS
330
1A
102
}
330
1A
100
AcDbPlotSettings
  1

  2
none_device
  4
Letter_(8.50_x_11.00_Inches)
  6

 40
6.349999904632568
 41
6.349999904632568
 42
6.350006103515625
 43
6.350006103515625
 44
215.8999938964843
 45
279.3999938964843
 46
38.3032
 47
38.15079999999999
 48
0.0
 49
0.0
140
0.0
141
0.0
142
1.0
143
1.0
 70
   688
 72
     0
 73
     1
 74
     5
  7

 75
    16
147
1.0
148
0.0
149
0.0
100
AcDbLayout
  1
Layout1
 70
     1
 71
     1
 10
-1.75200024029589
 20
-1.757999996245376
 11
9.247999519408217
 21
6.741999763458731
 12
0.0
 22
0.0
 32
0.0
 14
-1.439262267973589
 24
-1.41285528304607
 34
0.0
 15
378.5644035047149
 25
6.396855050259421
 35
0.0
146
0.0
 13
0.0
 23
0.0
 33
0.0
 16
1.0
 26
0.0
 36
0.0
 17
0.0
 27
1.0
 37
0.0
 76
     0
330
58
331
77
  0
LAYOUT
  5
5E
102
{ACAD_REACTORS
330
1A
102
}
330
1A
100
AcDbPlotSettings
  1

  2
None
  4

  6

 40
0.0
 41
0.0
 42
0.0
 43
0.0
 44
0.0
 45
0.0
 46
0.0
 47
0.0
 48
0.0
 49
0.0
140
0.0
141
0.0
142
1.0
143
1.0
 70
   688
 72
     0
 73
     0
 74
     5
  7

 75
    16
147
1.0
148
0.0
149
0.0
100
AcDbLayout
  1
Layout2
 70
     1
 71
     2
 10
0.0
 20
0.0
 11
12.0
 21
9.0
 12
0.0
 22
0.0
 32
0.0
 14
0.0
 24
0.0
 34
0.0
 15
0.0
 25
0.0
 35
0.0
146
0.0
 13
0.0
 23
0.0
 33
0.0
 16
1.0
 26
0.0
 36
0.0
 17
0.0
 27
1.0
 37
0.0
 76
     0
330
5D
  0
LAYOUT
  5
22
102
{ACAD_REACTORS
330
1A
102
}
330
1A
100
AcDbPlotSettings
  1

  2
none_device
  4
ANSI_A_(8.50_x_11.00_Inches)
  6

 40
6.349999904632568
 41
19.04999923706054
 42
6.350006103515625
 43
19.04998779296875
 44
215.8999938964843
 45
279.3999938964843
 46
0.0
 47
0.0
 48
0.0
 49
0.0
140
0.0
141
0.0
142
1.0
143
2.584895464708373
 70
 11952
 72
     0
 73
     1
 74
     0
  7

 75
     0
147
0.3868628397755418
148
0.0
149
0.0
100
AcDbLayout
  1
Model
 70
     1
 71
     0
 10
0.0
 20
0.0
 11
12.0
 21
9.0
 12
0.0
 22
0.0
 32
0.0
 14
0.0
 24
0.0
 34
0.0
 15
0.0
 25
0.0
 35
0.0
146
0.0
 13
0.0
 23
0.0
 33
0.0
 16
1.0
 26
0.0
 36
0.0
 17
0.0
 27
1.0
 37
0.0
 76
     0
330
1F
  0
MLINESTYLE
  5
18
102
{ACAD_REACTORS
330
17
102
}
330
17
100
AcDbMlineStyle
  2
STANDARD
 70
     0
  3

 62
   256
 51
90.0
 52
90.0
 71
     2
 49
0.5
 62
   256
  6
BYLAYER
 49
-0.5
 62
   256
  6
BYLAYER
  0
ACDBPLACEHOLDER
  5
F
102
{ACAD_REACTORS
330
E
102
}
330
E
  0
DICTIONARYVAR
  5
67
102
{ACAD_REACTORS
330
66
102
}
330
66
100
DictionaryVariables
280
     0
  1
2
  0
DICTIONARYVAR
  5
6B
102
{ACAD_REACTORS
330
66
102
}
330
66
100
DictionaryVariables
280
     0
  1
1
  0
ENDSEC
  0
EOF
