  0
SECTION
  2
HEADER
  9
$ACADVER
  1
AC1015
  9
$ACADMAINTVER
 70
    13
  9
$DWGCODEPAGE
  3
ANSI_1252
  9
$INSBASE
 10
0.0
 20
0.0
 30
0.0
  9
$EXTMIN
 10
1.000000000000000E+20
 20
1.000000000000000E+20
 30
1.000000000000000E+20
  9
$EXTMAX
 10
-1.000000000000000E+20
 20
-1.000000000000000E+20
 30
-1.000000000000000E+20
  9
$LIMMIN
 10
0.0
 20
0.0
  9
$LIMMAX
 10
12.0
 20
9.0
  9
$ORTHOMODE
 70
     0
  9
$REGENMODE
 70
     1
  9
$FILLMODE
 70
     1
  9
$QTEXTMODE
 70
     0
  9
$MIRRTEXT
 70
     1
  9
$LTSCALE
 40
0.3
  9
$ATTMODE
 70
     1
  9
$TEXTSIZE
 40
0.2
  9
$TRACEWID
 40
0.05
  9
$TEXTSTYLE
  7
Standard
  9
$CLAYER
  8
0
  9
$CELTYPE
  6
HIDDENX2
  9
$CECOLOR
 62
   256
  9
$CELTSCALE
 40
0.3
  9
$DISPSILH
 70
     0
  9
$DIMSCALE
 40
1.0
  9
$DIMASZ
 40
0.125
  9
$DIMEXO
 40
0.0625
  9
$DIMDLI
 40
0.38
  9
$DIMRND
 40
0.0
  9
$DIMDLE
 40
0.0
  9
$DIMEXE
 40
0.18
  9
$DIMTP
 40
0.0
  9
$DIMTM
 40
0.0
  9
$DIMTXT
 40
0.125
  9
$DIMCEN
 40
0.09
  9
$DIMTSZ
 40
0.0
  9
$DIMTOL
 70
     0
  9
$DIMLIM
 70
     0
  9
$DIMTIH
 70
     1
  9
$DIMTOH
 70
     1
  9
$DIMSE1
 70
     0
  9
$DIMSE2
 70
     0
  9
$DIMTAD
 70
     0
  9
$DIMZIN
 70
     0
  9
$DIMBLK
  1

  9
$DIMASO
 70
     1
  9
$DIMSHO
 70
     1
  9
$DIMPOST
  1

  9
$DIMAPOST
  1

  9
$DIMALT
 70
     0
  9
$DIMALTD
 70
     2
  9
$DIMALTF
 40
25.4
  9
$DIMLFAC
 40
1.0
  9
$DIMTOFL
 70
     0
  9
$DIMTVP
 40
0.0
  9
$DIMTIX
 70
     0
  9
$DIMSOXD
 70
     0
  9
$DIMSAH
 70
     0
  9
$DIMBLK1
  1

  9
$DIMBLK2
  1

  9
$DIMSTYLE
  2
Standard
  9
$DIMCLRD
 70
     0
  9
$DIMCLRE
 70
     0
  9
$DIMCLRT
 70
     0
  9
$DIMTFAC
 40
1.0
  9
$DIMGAP
 40
0.09
  9
$DIMJUST
 70
     0
  9
$DIMSD1
 70
     0
  9
$DIMSD2
 70
     0
  9
$DIMTOLJ
 70
     1
  9
$DIMTZIN
 70
     0
  9
$DIMALTZ
 70
     0
  9
$DIMALTTZ
 70
     0
  9
$DIMUPT
 70
     0
  9
$DIMDEC
 70
     3
  9
$DIMTDEC
 70
     3
  9
$DIMALTU
 70
     2
  9
$DIMALTTD
 70
     2
  9
$DIMTXSTY
  7
Standard
  9
$DIMAUNIT
 70
     0
  9
$DIMADEC
 70
     0
  9
$DIMALTRND
 40
0.0
  9
$DIMAZIN
 70
     0
  9
$DIMDSEP
 70
    46
  9
$DIMATFIT
 70
     3
  9
$DIMFRAC
 70
     0
  9
$DIMLDRBLK
  1

  9
$DIMLUNIT
 70
     2
  9
$DIMLWD
 70
    -2
  9
$DIMLWE
 70
    -2
  9
$DIMTMOVE
 70
     0
  9
$LUNITS
 70
     2
  9
$LUPREC
 70
     4
  9
$SKETCHINC
 40
0.1
  9
$FILLETRAD
 40
0.5
  9
$AUNITS
 70
     0
  9
$AUPREC
 70
     0
  9
$MENU
  1
.
  9
$ELEVATION
 40
0.0
  9
$PELEVATION
 40
0.0
  9
$THICKNESS
 40
0.0
  9
$LIMCHECK
 70
     0
  9
$CHAMFERA
 40
0.25
  9
$CHAMFERB
 40
0.25
  9
$CHAMFERC
 40
1.0
  9
$CHAMFERD
 40
0.0
  9
$SKPOLY
 70
     0
  9
$TDCREATE
 40
2454412.621520173
  9
$TDUCREATE
 40
2454412.788186840
  9
$TDUPDATE
 40
2455416.034906365
  9
$TDUUPDATE
 40
2455416.201573032
  9
$TDINDWG
 40
0.0680963310
  9
$TDUSRTIMER
 40
0.0680963310
  9
$USRTIMER
 70
     1
  9
$ANGBASE
 50
0.0
  9
$ANGDIR
 70
     0
  9
$PDMODE
 70
     0
  9
$PDSIZE
 40
0.0
  9
$PLINEWID
 40
0.0
  9
$SPLFRAME
 70
     0
  9
$SPLINETYPE
 70
     6
  9
$SPLINESEGS
 70
     8
  9
$HANDSEED
  5
63E
  9
$SURFTAB1
 70
     6
  9
$SURFTAB2
 70
     6
  9
$SURFTYPE
 70
     6
  9
$SURFU
 70
     6
  9
$SURFV
 70
     6
  9
$UCSBASE
  2

  9
$UCSNAME
  2

  9
$UCSORG
 10
0.0
 20
0.0
 30
0.0
  9
$UCSXDIR
 10
1.0
 20
0.0
 30
0.0
  9
$UCSYDIR
 10
0.0
 20
1.0
 30
0.0
  9
$UCSORTHOREF
  2

  9
$UCSORTHOVIEW
 70
     0
  9
$UCSORGTOP
 10
0.0
 20
0.0
 30
0.0
  9
$UCSORGBOTTOM
 10
0.0
 20
0.0
 30
0.0
  9
$UCSORGLEFT
 10
0.0
 20
0.0
 30
0.0
  9
$UCSORGRIGHT
 10
0.0
 20
0.0
 30
0.0
  9
$UCSORGFRONT
 10
0.0
 20
0.0
 30
0.0
  9
$UCSORGBACK
 10
0.0
 20
0.0
 30
0.0
  9
$PUCSBASE
  2

  9
$PUCSNAME
  2

  9
$PUCSORG
 10
0.0
 20
0.0
 30
0.0
  9
$PUCSXDIR
 10
1.0
 20
0.0
 30
0.0
  9
$PUCSYDIR
 10
0.0
 20
1.0
 30
0.0
  9
$PUCSORTHOREF
  2

  9
$PUCSORTHOVIEW
 70
     0
  9
$PUCSORGTOP
 10
0.0
 20
0.0
 30
0.0
  9
$PUCSORGBOTTOM
 10
0.0
 20
0.0
 30
0.0
  9
$PUCSORGLEFT
 10
0.0
 20
0.0
 30
0.0
  9
$PUCSORGRIGHT
 10
0.0
 20
0.0
 30
0.0
  9
$PUCSORGFRONT
 10
0.0
 20
0.0
 30
0.0
  9
$PUCSORGBACK
 10
0.0
 20
0.0
 30
0.0
  9
$USERI1
 70
     0
  9
$USERI2
 70
     0
  9
$USERI3
 70
     0
  9
$USERI4
 70
     0
  9
$USERI5
 70
     0
  9
$USERR1
 40
0.0
  9
$USERR2
 40
0.0
  9
$USERR3
 40
0.0
  9
$USERR4
 40
0.0
  9
$USERR5
 40
0.0
  9
$WORLDVIEW
 70
     1
  9
$SHADEDGE
 70
     3
  9
$SHADEDIF
 70
    70
  9
$TILEMODE
 70
     0
  9
$MAXACTVP
 70
    64
  9
$PINSBASE
 10
0.0
 20
0.0
 30
0.0
  9
$PLIMCHECK
 70
     0
  9
$PEXTMIN
 10
-1.439262267973588
 20
-1.41285528304607
 30
0.0
  9
$PEXTMAX
 10
8.966538218833356
 20
6.428113065922999
 30
0.0
  9
$PLIMMIN
 10
-1.75200024029589
 20
-1.757999996245375
  9
$PLIMMAX
 10
9.247999519408216
 20
6.74199976345873
  9
$UNITMODE
 70
     0
  9
$VISRETAIN
 70
     1
  9
$PLINEGEN
 70
     0
  9
$PSLTSCALE
 70
     1
  9
$TREEDEPTH
 70
  3020
  9
$CMLSTYLE
  2
Standard
  9
$CMLJUST
 70
     0
  9
$CMLSCALE
 40
1.0
  9
$PROXYGRAPHICS
 70
     1
  9
$MEASUREMENT
 70
     0
  9
$CELWEIGHT
370
    -1
  9
$ENDCAPS
280
     0
  9
$JOINSTYLE
280
     0
  9
$LWDISPLAY
290
     0
  9
$INSUNITS
 70
     1
  9
$HYPERLINKBASE
  1

  9
$STYLESHEET
  1

  9
$XEDIT
290
     1
  9
$CEPSNTYPE
380
     0
  9
$PSTYLEMODE
290
     1
  9
$FINGERPRINTGUID
  2
{FDEAD576-A652-11D2-9A35-0060089B3A3F}
  9
$VERSIONGUID
  2
{C5E23DE4-AC24-4DD9-880B-310D089766DF}
  9
$EXTNAMES
290
     1
  9
$PSVPSCALE
 40
0.0
  9
$OLESTARTUP
290
     0
  0
ENDSEC
  0
SECTION
  2
CLASSES
  0
CLASS
  1
ACDBDICTIONARYWDFLT
  2
AcDbDictionaryWithDefault
  3
AutoCAD 2000
 90
        0
280
     0
281
     0
  0
CLASS
  1
ACDBPLACEHOLDER
  2
AcDbPlaceHolder
  3
AutoCAD 2000
 90
        0
280
     0
281
     0
  0
CLASS
  1
LAYOUT
  2
AcDbLayout
  3
AutoCAD 2000
 90
        0
280
     0
281
     0
  0
CLASS
  1
DICTIONARYVAR
  2
AcDbDictionaryVar
  3
AutoCAD 2000
 90
        0
280
     0
281
     0
  0
CLASS
  1
DIMASSOC
  2
AcDbDimAssoc
  3
"AcDbDimAssoc|Product Desc:     AcDim ARX App For Dimension|Company:          Autodesk, Inc.|WEB Address:      www.autodesk.com"
 90
        0
280
     0
281
     0
  0
ENDSEC
  0
SECTION
  2
TABLES
  0
TABLE
  2
VPORT
  5
8
330
0
100
AcDbSymbolTable
 70
     1
  0
VPORT
  5
74
330
8
100
AcDbSymbolTableRecord
100
AcDbViewportTableRecord
  2
*Active
 70
     0
 10
0.0
 20
0.0
 11
1.0
 21
1.0
 12
20.48748698095427
 22
9.784138269231398
 13
0.0
 23
0.0
 14
0.5
 24
0.5
 15
0.5
 25
0.5
 16
0.0
 26
0.0
 36
1.0
 17
0.0
 27
0.0
 37
0.0
 40
19.56827653846278
 41
2.093949044585986
 42
50.0
 43
0.0
 44
0.0
 50
0.0
 51
0.0
 71
     0
 72
   100
 73
     1
 74
     3
 75
     0
 76
     0
 77
     0
 78
     0
281
     0
 65
     1
110
0.0
120
0.0
130
0.0
111
1.0
121
0.0
131
0.0
112
0.0
122
1.0
132
0.0
 79
     0
146
0.0
  0
ENDTAB
  0
TABLE
  2
LTYPE
  5
5
330
0
100
AcDbSymbolTable
 70
     3
  0
LTYPE
  5
14
330
5
100
AcDbSymbolTableRecord
100
AcDbLinetypeTableRecord
  2
ByBlock
 70
     0
  3

 72
    65
 73
     0
 40
0.0
  0
LTYPE
  5
15
330
5
100
AcDbSymbolTableRecord
100
AcDbLinetypeTableRecord
  2
ByLayer
 70
     0
  3

 72
    65
 73
     0
 40
0.0
  0
LTYPE
  5
16
330
5
100
AcDbSymbolTableRecord
100
AcDbLinetypeTableRecord
  2
Continuous
 70
     0
  3
Solid line
 72
    65
 73
     0
 40
0.0
  0
LTYPE
  5
92
330
5
100
AcDbSymbolTableRecord
100
AcDbLinetypeTableRecord
  2
HIDDENX2
 70
     0
  3
Hidden (2x) ____ ____ ____ ____ ____ ____ ____
 72
    65
 73
     2
 40
0.75
 49
0.5
 74
     0
 49
-0.25
 74
     0
  0
LTYPE
  5
93
330
5
100
AcDbSymbolTableRecord
100
AcDbLinetypeTableRecord
  2
threads
 70
     0
  3
Zig zag /\/\/\/\/\/\/\/\/\/\/\/\/\/\/\/\/\/\/\/
 72
    65
 73
     4
 40
0.8001000000000001
 49
0.0001
 74
     0
 49
-0.2
 74
     4
 75
   131
340
91
 46
0.2
 50
0.0
 44
-0.2
 45
0.0
 49
-0.4
 74
     4
 75
   131
340
91
 46
0.2
 50
180.0
 44
0.2
 45
0.0
 49
-0.2
 74
     0
  0
ENDTAB
  0
TABLE
  2
LAYER
  5
2
330
0
100
AcDbSymbolTable
 70
     2
  0
LAYER
  5
10
330
2
100
AcDbSymbolTableRecord
100
AcDbLayerTableRecord
  2
0
 70
     0
 62
     7
  6
Continuous
370
    -3
390
F
  0
LAYER
  5
C2
330
2
100
AcDbSymbolTableRecord
100
AcDbLayerTableRecord
  2
Defpoints
 70
     0
 62
     7
  6
Continuous
290
     0
370
    -3
390
F
  0
ENDTAB
  0
TABLE
  2
STYLE
  5
3
330
0
100
AcDbSymbolTable
 70
     2
  0
STYLE
  5
11
330
3
100
AcDbSymbolTableRecord
100
AcDbTextStyleTableRecord
  2
Standard
 70
     0
 40
0.0
 41
1.0
 50
0.0
 71
     0
 42
0.2
  3
txt
  4

  0
STYLE
  5
91
330
3
100
AcDbSymbolTableRecord
100
AcDbTextStyleTableRecord
  2

 70
     1
 40
0.0
 41
1.0
 50
0.0
 71
     0
 42
0.2
  3
ltypeshp.shx
  4

  0
ENDTAB
  0
TABLE
  2
VIEW
  5
6
330
0
100
AcDbSymbolTable
 70
     0
  0
ENDTAB
  0
TABLE
  2
UCS
  5
7
330
0
100
AcDbSymbolTable
 70
     0
  0
ENDTAB
  0
TABLE
  2
APPID
  5
9
330
0
100
AcDbSymbolTable
 70
     1
  0
APPID
  5
12
330
9
100
AcDbSymbolTableRecord
100
AcDbRegAppTableRecord
  2
ACAD
 70
     0
  0
ENDTAB
  0
TABLE
  2
DIMSTYLE
  5
A
330
0
100
AcDbSymbolTable
 70
     1
100
AcDbDimStyleTable
 71
     1
340
27
  0
DIMSTYLE
105
27
102
{ACAD_REACTORS
330
1B2
330
1CC
330
1E8
330
23A
330
254
330
2A2
330
2C8
330
321
330
369
330
37D
330
3AF
330
3E0
330
44E
330
468
330
4A6
102
}
330
A
100
AcDbSymbolTableRecord
100
AcDbDimStyleTableRecord
  2
Standard
 70
     0
 41
0.125
140
0.125
271
     3
272
     3
340
11
  0
ENDTAB
  0
TABLE
  2
BLOCK_RECORD
  5
1
330
0
100
AcDbSymbolTable
 70
    28
  0
BLOCK_RECORD
  5
1F
330
1
100
AcDbSymbolTableRecord
100
AcDbBlockTableRecord
  2
*Model_Space
340
22
  0
BLOCK_RECORD
  5
58
330
1
100
AcDbSymbolTableRecord
100
AcDbBlockTableRecord
  2
*Paper_Space
340
59
  0
BLOCK_RECORD
  5
5D
330
1
100
AcDbSymbolTableRecord
100
AcDbBlockTableRecord
  2
*Paper_Space0
340
5E
  0
BLOCK_RECORD
  5
1B3
330
1
100
AcDbSymbolTableRecord
100
AcDbBlockTableRecord
  2
*D5
340
0
  0
BLOCK_RECORD
  5
1CD
330
1
100
AcDbSymbolTableRecord
100
AcDbBlockTableRecord
  2
*D6
340
0
  0
BLOCK_RECORD
  5
1E9
330
1
100
AcDbSymbolTableRecord
100
AcDbBlockTableRecord
  2
*D7
340
0
  0
BLOCK_RECORD
  5
23B
330
1
100
AcDbSymbolTableRecord
100
AcDbBlockTableRecord
  2
*D10
340
0
  0
BLOCK_RECORD
  5
255
330
1
100
AcDbSymbolTableRecord
100
AcDbBlockTableRecord
  2
*D11
340
0
  0
BLOCK_RECORD
  5
2A3
330
1
100
AcDbSymbolTableRecord
100
AcDbBlockTableRecord
  2
*D14
340
0
  0
BLOCK_RECORD
  5
2C9
330
1
100
AcDbSymbolTableRecord
100
AcDbBlockTableRecord
  2
*D15
340
0
  0
BLOCK_RECORD
  5
322
330
1
100
AcDbSymbolTableRecord
100
AcDbBlockTableRecord
  2
*D16
340
0
  0
BLOCK_RECORD
  5
36A
330
1
100
AcDbSymbolTableRecord
100
AcDbBlockTableRecord
  2
*D17
340
0
  0
BLOCK_RECORD
  5
37E
330
1
100
AcDbSymbolTableRecord
100
AcDbBlockTableRecord
  2
*D18
340
0
  0
BLOCK_RECORD
  5
3B0
330
1
100
AcDbSymbolTableRecord
100
AcDbBlockTableRecord
  2
*D20
340
0
  0
BLOCK_RECORD
  5
3E1
330
1
100
AcDbSymbolTableRecord
100
AcDbBlockTableRecord
  2
*D21
340
0
  0
BLOCK_RECORD
  5
44F
330
1
100
AcDbSymbolTableRecord
100
AcDbBlockTableRecord
  2
*D23
340
0
  0
BLOCK_RECORD
  5
469
330
1
100
AcDbSymbolTableRecord
100
AcDbBlockTableRecord
  2
*D24
340
0
  0
BLOCK_RECORD
  5
4A7
330
1
100
AcDbSymbolTableRecord
100
AcDbBlockTableRecord
  2
*D26
340
0
  0
ENDTAB
  0
ENDSEC
  0
SECTION
  2
BLOCKS
  0
BLOCK
  5
20
330
1F
100
AcDbEntity
  8
0
100
AcDbBlockBegin
  2
*Model_Space
 70
     0
 10
0.0
 20
0.0
 30
0.0
  3
*Model_Space
  1

  0
ENDBLK
  5
21
330
1F
100
AcDbEntity
  8
0
100
AcDbBlockEnd
  0
BLOCK
  5
5A
330
58
100
AcDbEntity
 67
     1
  8
0
100
AcDbBlockBegin
  2
*Paper_Space
 70
     0
 10
0.0
 20
0.0
 30
0.0
  3
*Paper_Space
  1

  0
ENDBLK
  5
5B
330
58
100
AcDbEntity
 67
     1
  8
0
100
AcDbBlockEnd
  0
BLOCK
  5
5F
330
5D
100
AcDbEntity
  8
0
100
AcDbBlockBegin
  2
*Paper_Space0
 70
     0
 10
0.0
 20
0.0
 30
0.0
  3
*Paper_Space0
  1

  0
ENDBLK
  5
60
330
5D
100
AcDbEntity
  8
0
100
AcDbBlockEnd
  0
BLOCK
  5
1BE
330
1B3
100
AcDbEntity
  8
0
 48
0.3
100
AcDbBlockBegin
  2
*D5
 70
     1
 10
0.0
 20
0.0
 30
0.0
  3
*D5
  1

  0
LINE
  5
595
330
1B3
100
AcDbEntity
  8
0
 62
     0
 48
0.3
370
    -2
100
AcDbLine
 10
2.37777413818238
 20
1.55872905098708
 30
0.0
 11
2.37777413818238
 21
0.8421905836574222
 31
0.0
  0
LINE
  5
596
330
1B3
100
AcDbEntity
  8
0
 62
     0
 48
0.3
370
    -2
100
AcDbLine
 10
1.627774138182379
 20
1.55872905098708
 30
0.0
 11
1.627774138182379
 21
0.8421905836574222
 31
0.0
  0
LINE
  5
597
330
1B3
100
AcDbEntity
  8
0
 62
     0
 48
0.3
370
    -2
100
AcDbLine
 10
2.50277413818238
 20
1.022190583657422
 30
0.0
 11
2.62777413818238
 21
1.022190583657422
 31
0.0
  0
LINE
  5
598
330
1B3
100
AcDbEntity
  8
0
 62
     0
 48
0.3
370
    -2
100
AcDbLine
 10
1.502774138182379
 20
1.022190583657422
 30
0.0
 11
1.377774138182379
 21
1.022190583657422
 31
0.0
  0
SOLID
  5
599
330
1B3
100
AcDbEntity
  8
0
 62
     0
 48
0.3
100
AcDbTrace
 10
2.50277413818238
 20
1.043023916990755
 30
0.0
 11
2.50277413818238
 21
1.001357250324088
 31
0.0
 12
2.37777413818238
 22
1.022190583657422
 32
0.0
 13
2.37777413818238
 23
1.022190583657422
 33
0.0
  0
SOLID
  5
59A
330
1B3
100
AcDbEntity
  8
0
 62
     0
 48
0.3
100
AcDbTrace
 10
1.502774138182379
 20
1.043023916990755
 30
0.0
 11
1.502774138182379
 21
1.001357250324088
 31
0.0
 12
1.627774138182379
 22
1.022190583657422
 32
0.0
 13
1.627774138182379
 23
1.022190583657422
 33
0.0
  0
MTEXT
  5
59B
330
1B3
100
AcDbEntity
  8
0
 62
     0
 48
0.3
100
AcDbMText
 10
2.00277413818238
 20
1.022190583657422
 30
0.0
 40
0.125
 41
0.0
 71
     5
 72
     1
  1
\A1;0.750
 73
     1
 44
1.0
  0
POINT
  5
59C
330
1B3
100
AcDbEntity
  8
Defpoints
 62
     0
 48
0.3
100
AcDbPoint
 10
2.37777413818238
 20
1.62122905098708
 30
0.0
  0
POINT
  5
59D
330
1B3
100
AcDbEntity
  8
Defpoints
 62
     0
 48
0.3
100
AcDbPoint
 10
1.627774138182379
 20
1.62122905098708
 30
0.0
  0
POINT
  5
59E
330
1B3
100
AcDbEntity
  8
Defpoints
 62
     0
 48
0.3
100
AcDbPoint
 10
1.627774138182379
 20
1.022190583657422
 30
0.0
  0
ENDBLK
  5
1BF
330
1B3
100
AcDbEntity
  8
0
 48
0.3
100
AcDbBlockEnd
  0
BLOCK
  5
1D9
330
1CD
100
AcDbEntity
  8
0
 48
0.3
100
AcDbBlockBegin
  2
*D6
 70
     1
 10
0.0
 20
0.0
 30
0.0
  3
*D6
  1

  0
LINE
  5
59F
330
1CD
100
AcDbEntity
  8
0
 62
     0
 48
0.3
370
    -2
100
AcDbLine
 10
1.56527413818238
 20
5.513450498957356
 30
0.0
 11
-0.2100293505143177
 21
5.513450498957356
 31
0.0
  0
LINE
  5
5A0
330
1CD
100
AcDbEntity
  8
0
 62
     0
 48
0.3
370
    -2
100
AcDbLine
 10
1.56527413818238
 20
4.888450498957356
 30
0.0
 11
-0.2100293505143179
 21
4.888450498957356
 31
0.0
  0
LINE
  5
5A1
330
1CD
100
AcDbEntity
  8
0
 62
     0
 48
0.3
370
    -2
100
AcDbLine
 10
-0.0300293505143178
 20
5.638450498957356
 30
0.0
 11
-0.0300293505143178
 21
5.763450498957356
 31
0.0
  0
LINE
  5
5A2
330
1CD
100
AcDbEntity
  8
0
 62
     0
 48
0.3
370
    -2
100
AcDbLine
 10
-0.030029350514318
 20
4.763450498957356
 30
0.0
 11
-0.030029350514318
 21
4.638450498957356
 31
0.0
  0
SOLID
  5
5A3
330
1CD
100
AcDbEntity
  8
0
 62
     0
 48
0.3
100
AcDbTrace
 10
-0.0508626838476511
 20
5.638450498957356
 30
0.0
 11
-0.0091960171809844
 21
5.638450498957356
 31
0.0
 12
-0.0300293505143178
 22
5.513450498957356
 32
0.0
 13
-0.0300293505143178
 23
5.513450498957356
 33
0.0
  0
SOLID
  5
5A4
330
1CD
100
AcDbEntity
  8
0
 62
     0
 48
0.3
100
AcDbTrace
 10
-0.0508626838476513
 20
4.763450498957356
 30
0.0
 11
-0.0091960171809846
 21
4.763450498957356
 31
0.0
 12
-0.030029350514318
 22
4.888450498957356
 32
0.0
 13
-0.030029350514318
 23
4.888450498957356
 33
0.0
  0
MTEXT
  5
5A5
330
1CD
100
AcDbEntity
  8
0
 62
     0
 48
0.3
100
AcDbMText
 10
-0.0300293505143187
 20
5.263450498957356
 30
0.0
 40
0.125
 41
0.0
 71
     5
 72
     1
  1
\A1;0.625
 73
     1
 44
1.0
  0
POINT
  5
5A6
330
1CD
100
AcDbEntity
  8
Defpoints
 62
     0
 48
0.3
100
AcDbPoint
 10
1.62777413818238
 20
5.513450498957356
 30
0.0
  0
POINT
  5
5A7
330
1CD
100
AcDbEntity
  8
Defpoints
 62
     0
 48
0.3
100
AcDbPoint
 10
1.62777413818238
 20
4.888450498957356
 30
0.0
  0
POINT
  5
5A8
330
1CD
100
AcDbEntity
  8
Defpoints
 62
     0
 48
0.3
100
AcDbPoint
 10
-0.030029350514318
 20
4.888450498957356
 30
0.0
  0
ENDBLK
  5
1DA
330
1CD
100
AcDbEntity
  8
0
 48
0.3
100
AcDbBlockEnd
  0
BLOCK
  5
1F5
330
1E9
100
AcDbEntity
  8
0
 48
0.3
100
AcDbBlockBegin
  2
*D7
 70
     1
 10
0.0
 20
0.0
 30
0.0
  3
*D7
  1

  0
LINE
  5
5B3
330
1E9
100
AcDbEntity
  8
0
 62
     0
 48
0.3
370
    -2
100
AcDbLine
 10
1.94027413818238
 20
5.106950498957357
 30
0.0
 11
1.117725806673462
 21
5.106950498957357
 31
0.0
  0
LINE
  5
5B4
330
1E9
100
AcDbEntity
  8
0
 62
     0
 48
0.3
370
    -2
100
AcDbLine
 10
1.56527413818238
 20
4.888450498957356
 30
0.0
 11
1.117725806673462
 21
4.888450498957356
 31
0.0
  0
LINE
  5
5B5
330
1E9
100
AcDbEntity
  8
0
 62
     0
 48
0.3
370
    -2
100
AcDbLine
 10
1.297725806673462
 20
5.231950498957357
 30
0.0
 11
1.297725806673462
 21
5.356950498957357
 31
0.0
  0
LINE
  5
5B6
330
1E9
100
AcDbEntity
  8
0
 62
     0
 48
0.3
370
    -2
100
AcDbLine
 10
1.297725806673462
 20
4.763450498957356
 30
0.0
 11
1.297725806673462
 21
4.638450498957356
 31
0.0
  0
LINE
  5
5B7
330
1E9
100
AcDbEntity
  8
0
 62
     0
 48
0.3
370
    -2
100
AcDbLine
 10
1.297725806673462
 20
4.638450498957356
 30
0.0
 11
1.172725806673462
 21
4.638450498957356
 31
0.0
  0
SOLID
  5
5B8
330
1E9
100
AcDbEntity
  8
0
 62
     0
 48
0.3
100
AcDbTrace
 10
1.276892473340128
 20
5.231950498957357
 30
0.0
 11
1.318559140006795
 21
5.231950498957357
 31
0.0
 12
1.297725806673462
 22
5.106950498957357
 32
0.0
 13
1.297725806673462
 23
5.106950498957357
 33
0.0
  0
SOLID
  5
5B9
330
1E9
100
AcDbEntity
  8
0
 62
     0
 48
0.3
100
AcDbTrace
 10
1.276892473340128
 20
4.763450498957356
 30
0.0
 11
1.318559140006795
 21
4.763450498957356
 31
0.0
 12
1.297725806673462
 22
4.888450498957356
 32
0.0
 13
1.297725806673462
 23
4.888450498957356
 33
0.0
  0
MTEXT
  5
5BA
330
1E9
100
AcDbEntity
  8
0
 62
     0
 48
0.3
100
AcDbMText
 10
0.8639758066734611
 20
4.638450498957356
 30
0.0
 40
0.125
 41
0.0
 71
     5
 72
     1
  1
\A1;0.219
 73
     1
 44
1.0
  0
POINT
  5
5BB
330
1E9
100
AcDbEntity
  8
Defpoints
 62
     0
 48
0.3
100
AcDbPoint
 10
2.00277413818238
 20
5.106950498957356
 30
0.0
  0
POINT
  5
5BC
330
1E9
100
AcDbEntity
  8
Defpoints
 62
     0
 48
0.3
100
AcDbPoint
 10
1.62777413818238
 20
4.888450498957356
 30
0.0
  0
POINT
  5
5BD
330
1E9
100
AcDbEntity
  8
Defpoints
 62
     0
 48
0.3
100
AcDbPoint
 10
1.297725806673462
 20
4.888450498957356
 30
0.0
  0
ENDBLK
  5
1F6
330
1E9
100
AcDbEntity
  8
0
 48
0.3
100
AcDbBlockEnd
  0
BLOCK
  5
246
330
23B
100
AcDbEntity
  8
0
 48
0.3
100
AcDbBlockBegin
  2
*D10
 70
     1
 10
0.0
 20
0.0
 30
0.0
  3
*D10
  1

  0
LINE
  5
5A9
330
23B
100
AcDbEntity
  8
0
 62
     0
 48
0.3
370
    -2
100
AcDbLine
 10
1.62777413818238
 20
5.575950498957356
 30
0.0
 11
1.62777413818238
 21
6.110944917937084
 31
0.0
  0
LINE
  5
5AA
330
23B
100
AcDbEntity
  8
0
 62
     0
 48
0.3
370
    -2
100
AcDbLine
 10
2.00277413818238
 20
5.169450498957356
 30
0.0
 11
2.00277413818238
 21
6.110944917937084
 31
0.0
  0
LINE
  5
5AB
330
23B
100
AcDbEntity
  8
0
 62
     0
 48
0.3
370
    -2
100
AcDbLine
 10
1.50277413818238
 20
5.930944917937084
 30
0.0
 11
1.37777413818238
 21
5.930944917937084
 31
0.0
  0
LINE
  5
5AC
330
23B
100
AcDbEntity
  8
0
 62
     0
 48
0.3
370
    -2
100
AcDbLine
 10
2.12777413818238
 20
5.930944917937084
 30
0.0
 11
2.25277413818238
 21
5.930944917937084
 31
0.0
  0
SOLID
  5
5AD
330
23B
100
AcDbEntity
  8
0
 62
     0
 48
0.3
100
AcDbTrace
 10
1.50277413818238
 20
5.951778251270417
 30
0.0
 11
1.50277413818238
 21
5.910111584603751
 31
0.0
 12
1.62777413818238
 22
5.930944917937084
 32
0.0
 13
1.62777413818238
 23
5.930944917937084
 33
0.0
  0
SOLID
  5
5AE
330
23B
100
AcDbEntity
  8
0
 62
     0
 48
0.3
100
AcDbTrace
 10
2.12777413818238
 20
5.951778251270417
 30
0.0
 11
2.12777413818238
 21
5.910111584603751
 31
0.0
 12
2.00277413818238
 22
5.930944917937084
 32
0.0
 13
2.00277413818238
 23
5.930944917937084
 33
0.0
  0
MTEXT
  5
5AF
330
23B
100
AcDbEntity
  8
0
 62
     0
 48
0.3
100
AcDbMText
 10
2.582357471515714
 20
5.930944917937084
 30
0.0
 40
0.125
 41
0.0
 71
     5
 72
     1
  1
\A1;0.375
 73
     1
 44
1.0
  0
POINT
  5
5B0
330
23B
100
AcDbEntity
  8
Defpoints
 62
     0
 48
0.3
100
AcDbPoint
 10
1.62777413818238
 20
5.513450498957356
 30
0.0
  0
POINT
  5
5B1
330
23B
100
AcDbEntity
  8
Defpoints
 62
     0
 48
0.3
100
AcDbPoint
 10
2.00277413818238
 20
5.106950498957356
 30
0.0
  0
POINT
  5
5B2
330
23B
100
AcDbEntity
  8
Defpoints
 62
     0
 48
0.3
100
AcDbPoint
 10
2.00277413818238
 20
5.930944917937084
 30
0.0
  0
ENDBLK
  5
247
330
23B
100
AcDbEntity
  8
0
 48
0.3
100
AcDbBlockEnd
  0
BLOCK
  5
260
330
255
100
AcDbEntity
  8
0
 48
0.3
100
AcDbBlockBegin
  2
*D11
 70
     1
 10
0.0
 20
0.0
 30
0.0
  3
*D11
  1

  0
LINE
  5
5EB
330
255
100
AcDbEntity
  8
0
 62
     0
 48
0.3
370
    -2
100
AcDbLine
 10
4.829365370729001
 20
2.43372905098708
 30
0.0
 11
4.829365370729001
 21
4.643320352564998
 31
0.0
  0
LINE
  5
5EC
330
255
100
AcDbEntity
  8
0
 62
     0
 48
0.3
370
    -2
100
AcDbLine
 10
5.266365370728999
 20
2.43372905098708
 30
0.0
 11
5.266365370728999
 21
4.643320352564998
 31
0.0
  0
LINE
  5
5ED
330
255
100
AcDbEntity
  8
0
 62
     0
 48
0.3
370
    -2
100
AcDbLine
 10
4.954365370729001
 20
4.463320352564998
 30
0.0
 11
5.141365370728999
 21
4.463320352564998
 31
0.0
  0
LINE
  5
5EE
330
255
100
AcDbEntity
  8
0
 62
     0
 48
0.3
370
    -2
100
AcDbLine
 10
5.266365370728999
 20
4.463320352564998
 30
0.0
 11
5.391365370728999
 21
4.463320352564998
 31
0.0
  0
SOLID
  5
5EF
330
255
100
AcDbEntity
  8
0
 62
     0
 48
0.3
100
AcDbTrace
 10
4.954365370729001
 20
4.484153685898331
 30
0.0
 11
4.954365370729001
 21
4.442487019231665
 31
0.0
 12
4.829365370729001
 22
4.463320352564998
 32
0.0
 13
4.829365370729001
 23
4.463320352564998
 33
0.0
  0
SOLID
  5
5F0
330
255
100
AcDbEntity
  8
0
 62
     0
 48
0.3
100
AcDbTrace
 10
5.141365370728999
 20
4.484153685898331
 30
0.0
 11
5.141365370728999
 21
4.442487019231665
 31
0.0
 12
5.266365370728999
 22
4.463320352564998
 32
0.0
 13
5.266365370728999
 23
4.463320352564998
 33
0.0
  0
MTEXT
  5
5F1
330
255
100
AcDbEntity
  8
0
 62
     0
 48
0.3
100
AcDbMText
 10
5.720948704062333
 20
4.463320352564998
 30
0.0
 40
0.125
 41
0.0
 71
     5
 72
     1
  1
\A1;0.437
 73
     1
 44
1.0
  0
POINT
  5
5F2
330
255
100
AcDbEntity
  8
Defpoints
 62
     0
 48
0.3
100
AcDbPoint
 10
4.829365370729001
 20
2.37122905098708
 30
0.0
  0
POINT
  5
5F3
330
255
100
AcDbEntity
  8
Defpoints
 62
     0
 48
0.3
100
AcDbPoint
 10
5.266365370728999
 20
2.37122905098708
 30
0.0
  0
POINT
  5
5F4
330
255
100
AcDbEntity
  8
Defpoints
 62
     0
 48
0.3
100
AcDbPoint
 10
5.266365370728999
 20
4.463320352564998
 30
0.0
  0
ENDBLK
  5
261
330
255
100
AcDbEntity
  8
0
 48
0.3
100
AcDbBlockEnd
  0
BLOCK
  5
2AF
330
2A3
100
AcDbEntity
  8
0
 48
0.3
100
AcDbBlockBegin
  2
*D14
 70
     1
 10
0.0
 20
0.0
 30
0.0
  3
*D14
  1

  0
LINE
  5
5E1
330
2A3
100
AcDbEntity
  8
0
 62
     0
 48
0.3
370
    -2
100
AcDbLine
 10
3.025274138182381
 20
3.62122905098708
 30
0.0
 11
3.575349119522097
 21
3.62122905098708
 31
0.0
  0
LINE
  5
5E2
330
2A3
100
AcDbEntity
  8
0
 62
     0
 48
0.3
370
    -2
100
AcDbLine
 10
2.873274138182381
 20
3.37922905098708
 30
0.0
 11
3.575349119522097
 21
3.37922905098708
 31
0.0
  0
LINE
  5
5E3
330
2A3
100
AcDbEntity
  8
0
 62
     0
 48
0.3
370
    -2
100
AcDbLine
 10
3.395349119522097
 20
3.74622905098708
 30
0.0
 11
3.395349119522097
 21
3.87122905098708
 31
0.0
  0
LINE
  5
5E4
330
2A3
100
AcDbEntity
  8
0
 62
     0
 48
0.3
370
    -2
100
AcDbLine
 10
3.395349119522097
 20
3.25422905098708
 30
0.0
 11
3.395349119522097
 21
3.12922905098708
 31
0.0
  0
SOLID
  5
5E5
330
2A3
100
AcDbEntity
  8
0
 62
     0
 48
0.3
100
AcDbTrace
 10
3.374515786188764
 20
3.74622905098708
 30
0.0
 11
3.41618245285543
 21
3.74622905098708
 31
0.0
 12
3.395349119522097
 22
3.62122905098708
 32
0.0
 13
3.395349119522097
 23
3.62122905098708
 33
0.0
  0
SOLID
  5
5E6
330
2A3
100
AcDbEntity
  8
0
 62
     0
 48
0.3
100
AcDbTrace
 10
3.374515786188764
 20
3.25422905098708
 30
0.0
 11
3.41618245285543
 21
3.25422905098708
 31
0.0
 12
3.395349119522097
 22
3.37922905098708
 32
0.0
 13
3.395349119522097
 23
3.37922905098708
 33
0.0
  0
MTEXT
  5
5E7
330
2A3
100
AcDbEntity
  8
0
 62
     0
 48
0.3
100
AcDbMText
 10
3.395349119522096
 20
3.500229050987081
 30
0.0
 40
0.125
 41
0.0
 71
     5
 72
     1
  1
\A1;0.242
 73
     1
 44
1.0
  0
POINT
  5
5E8
330
2A3
100
AcDbEntity
  8
Defpoints
 62
     0
 48
0.3
100
AcDbPoint
 10
2.962774138182381
 20
3.62122905098708
 30
0.0
  0
POINT
  5
5E9
330
2A3
100
AcDbEntity
  8
Defpoints
 62
     0
 48
0.3
100
AcDbPoint
 10
2.810774138182381
 20
3.37922905098708
 30
0.0
  0
POINT
  5
5EA
330
2A3
100
AcDbEntity
  8
Defpoints
 62
     0
 48
0.3
100
AcDbPoint
 10
3.395349119522097
 20
3.37922905098708
 30
0.0
  0
ENDBLK
  5
2B0
330
2A3
100
AcDbEntity
  8
0
 48
0.3
100
AcDbBlockEnd
  0
BLOCK
  5
2D4
330
2C9
100
AcDbEntity
  8
0
 48
0.3
100
AcDbBlockBegin
  2
*D15
 70
     1
 10
0.0
 20
0.0
 30
0.0
  3
*D15
  1

  0
LINE
  5
58B
330
2C9
100
AcDbEntity
  8
0
 62
     0
 48
0.3
370
    -2
100
AcDbLine
 10
1.56527413818238
 20
3.62122905098708
 30
0.0
 11
0.1120455758713138
 21
3.621229050987081
 31
0.0
  0
LINE
  5
58C
330
2C9
100
AcDbEntity
  8
0
 62
     0
 48
0.3
370
    -2
100
AcDbLine
 10
1.565274138182379
 20
1.62122905098708
 30
0.0
 11
0.1120455758713134
 21
1.621229050987081
 31
0.0
  0
LINE
  5
58D
330
2C9
100
AcDbEntity
  8
0
 62
     0
 48
0.3
370
    -2
100
AcDbLine
 10
0.2920455758713138
 20
3.496229050987081
 30
0.0
 11
0.2920455758713136
 21
2.773729050987082
 31
0.0
  0
LINE
  5
58E
330
2C9
100
AcDbEntity
  8
0
 62
     0
 48
0.3
370
    -2
100
AcDbLine
 10
0.2920455758713134
 20
1.746229050987081
 30
0.0
 11
0.2920455758713136
 21
2.468729050987082
 31
0.0
  0
SOLID
  5
58F
330
2C9
100
AcDbEntity
  8
0
 62
     0
 48
0.3
100
AcDbTrace
 10
0.2712122425379805
 20
3.496229050987081
 30
0.0
 11
0.3128789092046471
 21
3.496229050987081
 31
0.0
 12
0.2920455758713138
 22
3.621229050987081
 32
0.0
 13
0.2920455758713138
 23
3.621229050987081
 33
0.0
  0
SOLID
  5
590
330
2C9
100
AcDbEntity
  8
0
 62
     0
 48
0.3
100
AcDbTrace
 10
0.2712122425379801
 20
1.746229050987081
 30
0.0
 11
0.3128789092046467
 21
1.746229050987081
 31
0.0
 12
0.2920455758713134
 22
1.621229050987081
 32
0.0
 13
0.2920455758713134
 23
1.621229050987081
 33
0.0
  0
MTEXT
  5
591
330
2C9
100
AcDbEntity
  8
0
 62
     0
 48
0.3
100
AcDbMText
 10
0.2920455758713132
 20
2.621229050987082
 30
0.0
 40
0.125
 41
0.0
 71
     5
 72
     1
  1
\A1;2.000
 73
     1
 44
1.0
  0
POINT
  5
592
330
2C9
100
AcDbEntity
  8
Defpoints
 62
     0
 48
0.3
100
AcDbPoint
 10
1.62777413818238
 20
3.62122905098708
 30
0.0
  0
POINT
  5
593
330
2C9
100
AcDbEntity
  8
Defpoints
 62
     0
 48
0.3
100
AcDbPoint
 10
1.627774138182379
 20
1.62122905098708
 30
0.0
  0
POINT
  5
594
330
2C9
100
AcDbEntity
  8
Defpoints
 62
     0
 48
0.3
100
AcDbPoint
 10
0.2920455758713134
 20
1.621229050987081
 30
0.0
  0
ENDBLK
  5
2D5
330
2C9
100
AcDbEntity
  8
0
 48
0.3
100
AcDbBlockEnd
  0
BLOCK
  5
32D
330
322
100
AcDbEntity
  8
0
 48
0.3
100
AcDbBlockBegin
  2
*D16
 70
     1
 10
0.0
 20
0.0
 30
0.0
  3
*D16
  1

  0
LINE
  5
5FF
330
322
100
AcDbEntity
  8
0
 62
     0
 48
0.3
370
    -2
100
AcDbLine
 10
5.266365370728999
 20
3.68372905098708
 30
0.0
 11
5.266365370728999
 21
4.15059775626853
 31
0.0
  0
LINE
  5
600
330
322
100
AcDbEntity
  8
0
 62
     0
 48
0.3
370
    -2
100
AcDbLine
 10
5.454365370729
 20
3.68372905098708
 30
0.0
 11
5.454365370729
 21
4.15059775626853
 31
0.0
  0
LINE
  5
601
330
322
100
AcDbEntity
  8
0
 62
     0
 48
0.3
370
    -2
100
AcDbLine
 10
5.141365370728999
 20
3.970597756268531
 30
0.0
 11
5.016365370728999
 21
3.970597756268531
 31
0.0
  0
LINE
  5
602
330
322
100
AcDbEntity
  8
0
 62
     0
 48
0.3
370
    -2
100
AcDbLine
 10
5.579365370729
 20
3.970597756268531
 30
0.0
 11
5.704365370729
 21
3.970597756268531
 31
0.0
  0
SOLID
  5
603
330
322
100
AcDbEntity
  8
0
 62
     0
 48
0.3
100
AcDbTrace
 10
5.141365370728999
 20
3.991431089601864
 30
0.0
 11
5.141365370728999
 21
3.949764422935197
 31
0.0
 12
5.266365370728999
 22
3.970597756268531
 32
0.0
 13
5.266365370728999
 23
3.970597756268531
 33
0.0
  0
SOLID
  5
604
330
322
100
AcDbEntity
  8
0
 62
     0
 48
0.3
100
AcDbTrace
 10
5.579365370729
 20
3.991431089601864
 30
0.0
 11
5.579365370729
 21
3.949764422935197
 31
0.0
 12
5.454365370729
 22
3.970597756268531
 32
0.0
 13
5.454365370729
 23
3.970597756268531
 33
0.0
  0
MTEXT
  5
605
330
322
100
AcDbEntity
  8
0
 62
     0
 48
0.3
100
AcDbMText
 10
6.013115370729
 20
3.970597756268531
 30
0.0
 40
0.125
 41
0.0
 71
     5
 72
     1
  1
\A1;0.188
 73
     1
 44
1.0
  0
POINT
  5
606
330
322
100
AcDbEntity
  8
Defpoints
 62
     0
 48
0.3
100
AcDbPoint
 10
5.266365370728999
 20
3.62122905098708
 30
0.0
  0
POINT
  5
607
330
322
100
AcDbEntity
  8
Defpoints
 62
     0
 48
0.3
100
AcDbPoint
 10
5.454365370729
 20
3.62122905098708
 30
0.0
  0
POINT
  5
608
330
322
100
AcDbEntity
  8
Defpoints
 62
     0
 48
0.3
100
AcDbPoint
 10
5.454365370729
 20
3.970597756268531
 30
0.0
  0
ENDBLK
  5
32E
330
322
100
AcDbEntity
  8
0
 48
0.3
100
AcDbBlockEnd
  0
BLOCK
  5
372
330
36A
100
AcDbEntity
  8
0
 48
0.3
100
AcDbBlockBegin
  2
*D17
 70
     1
 10
0.0
 20
0.0
 30
0.0
  3
*D17
  1

  0
LINE
  5
609
330
36A
100
AcDbEntity
  8
0
 62
     0
 48
0.3
370
    -2
100
AcDbLine
 10
2.729146243893277
 20
4.957466860657726
 30
0.0
 11
2.278251191643514
 21
5.050258740152646
 31
0.0
  0
MTEXT
  5
60A
330
36A
100
AcDbEntity
  8
0
 62
     0
 48
0.3
100
AcDbMText
 10
3.044146243893277
 20
4.957466860657726
 30
0.0
 40
0.1
 41
0.0
 71
     5
 72
     1
  1
\A1;\U+22050.313
 73
     1
 44
1.0
  0
SOLID
  5
60B
330
36A
100
AcDbEntity
  8
0
 62
     0
 48
0.3
100
AcDbTrace
 10
2.282450581184604
 20
5.070664447816433
 30
0.0
 11
2.274051802102425
 21
5.029853032488858
 31
0.0
 12
2.155816945660788
 22
5.075455077399184
 32
0.0
 13
2.155816945660788
 23
5.075455077399184
 33
0.0
  0
LINE
  5
60C
330
36A
100
AcDbEntity
  8
0
 62
     0
 48
0.3
370
    -2
100
AcDbLine
 10
1.91277413818238
 20
5.106950498957357
 30
0.0
 11
2.09277413818238
 21
5.106950498957358
 31
0.0
  0
LINE
  5
60D
330
36A
100
AcDbEntity
  8
0
 62
     0
 48
0.3
370
    -2
100
AcDbLine
 10
2.00277413818238
 20
5.016950498957357
 30
0.0
 11
2.00277413818238
 21
5.196950498957358
 31
0.0
  0
POINT
  5
60E
330
36A
100
AcDbEntity
  8
Defpoints
 62
     0
 48
0.3
100
AcDbPoint
 10
2.155816945660788
 20
5.075455077399184
 30
0.0
  0
POINT
  5
60F
330
36A
100
AcDbEntity
  8
Defpoints
 62
     0
 48
0.3
100
AcDbPoint
 10
1.849731330703972
 20
5.138445920515529
 30
0.0
  0
ENDBLK
  5
373
330
36A
100
AcDbEntity
  8
0
 48
0.3
100
AcDbBlockEnd
  0
BLOCK
  5
387
330
37E
100
AcDbEntity
  8
0
 48
0.3
100
AcDbBlockBegin
  2
*D18
 70
     1
 10
0.0
 20
0.0
 30
0.0
  3
*D18
  1

  0
LINE
  5
610
330
37E
100
AcDbEntity
  8
0
 62
     0
 48
0.3
370
    -2
100
AcDbLine
 10
2.58097107635407
 20
4.641796501039334
 30
0.0
 11
2.401804409687403
 21
4.641796501039333
 31
0.0
  0
LINE
  5
611
330
37E
100
AcDbEntity
  8
0
 62
     0
 48
0.3
370
    -2
100
AcDbLine
 10
2.401804409687403
 20
4.641796501039333
 30
0.0
 11
2.149596908470521
 21
4.935797572821353
 31
0.0
  0
MTEXT
  5
612
330
37E
100
AcDbEntity
  8
0
 62
     0
 48
0.3
100
AcDbMText
 10
2.887637743020738
 20
4.641796501039333
 30
0.0
 40
0.1
 41
0.0
 71
     5
 72
     1
  1
\A1;\U+22050.201
 73
     1
 44
1.0
  0
SOLID
  5
613
330
37E
100
AcDbEntity
  8
0
 62
     0
 48
0.3
100
AcDbTrace
 10
2.165409263065495
 20
4.949362130312867
 30
0.0
 11
2.133784553875547
 21
4.92223301532984
 31
0.0
 12
2.068209563521441
 22
5.0306717003912
 32
0.0
 13
2.068209563521441
 23
5.0306717003912
 33
0.0
  0
LINE
  5
614
330
37E
100
AcDbEntity
  8
0
 62
     0
 48
0.3
370
    -2
100
AcDbLine
 10
1.91277413818238
 20
5.106950498957356
 30
0.0
 11
2.092774138182379
 21
5.106950498957356
 31
0.0
  0
LINE
  5
615
330
37E
100
AcDbEntity
  8
0
 62
     0
 48
0.3
370
    -2
100
AcDbLine
 10
2.00277413818238
 20
5.016950498957356
 30
0.0
 11
2.002774138182379
 21
5.196950498957356
 31
0.0
  0
POINT
  5
616
330
37E
100
AcDbEntity
  8
Defpoints
 62
     0
 48
0.3
100
AcDbPoint
 10
2.068209563521441
 20
5.0306717003912
 30
0.0
  0
POINT
  5
617
330
37E
100
AcDbEntity
  8
Defpoints
 62
     0
 48
0.3
100
AcDbPoint
 10
1.93733871284332
 20
5.183229297523512
 30
0.0
  0
ENDBLK
  5
388
330
37E
100
AcDbEntity
  8
0
 48
0.3
100
AcDbBlockEnd
  0
BLOCK
  5
3BC
330
3B0
100
AcDbEntity
  8
0
 48
0.3
100
AcDbBlockBegin
  2
*D20
 70
     1
 10
0.0
 20
0.0
 30
0.0
  3
*D20
  1

  0
LINE
  5
580
330
3B0
100
AcDbEntity
  8
0
 62
     0
 48
0.3
370
    -2
100
AcDbLine
 10
1.78402413818238
 20
2.17122905098708
 30
0.0
 11
0.656641811888963
 21
2.171229050987081
 31
0.0
  0
LINE
  5
581
330
3B0
100
AcDbEntity
  8
0
 62
     0
 48
0.3
370
    -2
100
AcDbLine
 10
1.78402413818238
 20
2.37122905098708
 30
0.0
 11
0.6566418118889632
 21
2.371229050987081
 31
0.0
  0
LINE
  5
582
330
3B0
100
AcDbEntity
  8
0
 62
     0
 48
0.3
370
    -2
100
AcDbLine
 10
0.836641811888963
 20
2.046229050987081
 30
0.0
 11
0.836641811888963
 21
1.92122905098708
 31
0.0
  0
LINE
  5
583
330
3B0
100
AcDbEntity
  8
0
 62
     0
 48
0.3
370
    -2
100
AcDbLine
 10
0.8366418118889631
 20
2.496229050987081
 30
0.0
 11
0.8366418118889631
 21
2.621229050987082
 31
0.0
  0
LINE
  5
584
330
3B0
100
AcDbEntity
  8
0
 62
     0
 48
0.3
370
    -2
100
AcDbLine
 10
0.8366418118889631
 20
2.621229050987082
 30
0.0
 11
0.9616418118889631
 21
2.621229050987082
 31
0.0
  0
SOLID
  5
585
330
3B0
100
AcDbEntity
  8
0
 62
     0
 48
0.3
100
AcDbTrace
 10
0.8158084785556296
 20
2.046229050987081
 30
0.0
 11
0.8574751452222963
 21
2.046229050987081
 31
0.0
 12
0.836641811888963
 22
2.171229050987081
 32
0.0
 13
0.836641811888963
 23
2.171229050987081
 33
0.0
  0
SOLID
  5
586
330
3B0
100
AcDbEntity
  8
0
 62
     0
 48
0.3
100
AcDbTrace
 10
0.8158084785556297
 20
2.496229050987081
 30
0.0
 11
0.8574751452222965
 21
2.496229050987081
 31
0.0
 12
0.8366418118889631
 22
2.371229050987081
 32
0.0
 13
0.8366418118889631
 23
2.371229050987081
 33
0.0
  0
MTEXT
  5
587
330
3B0
100
AcDbEntity
  8
0
 62
     0
 48
0.3
100
AcDbMText
 10
1.270391811888962
 20
2.621229050987082
 30
0.0
 40
0.125
 41
0.0
 71
     5
 72
     1
  1
\A1;0.200
 73
     1
 44
1.0
  0
POINT
  5
588
330
3B0
100
AcDbEntity
  8
Defpoints
 62
     0
 48
0.3
100
AcDbPoint
 10
1.84652413818238
 20
2.17122905098708
 30
0.0
  0
POINT
  5
589
330
3B0
100
AcDbEntity
  8
Defpoints
 62
     0
 48
0.3
100
AcDbPoint
 10
1.84652413818238
 20
2.37122905098708
 30
0.0
  0
POINT
  5
58A
330
3B0
100
AcDbEntity
  8
Defpoints
 62
     0
 48
0.3
100
AcDbPoint
 10
0.8366418118889631
 20
2.371229050987081
 30
0.0
  0
ENDBLK
  5
3BD
330
3B0
100
AcDbEntity
  8
0
 48
0.3
100
AcDbBlockEnd
  0
BLOCK
  5
3EC
330
3E1
100
AcDbEntity
  8
0
 48
0.3
100
AcDbBlockBegin
  2
*D21
 70
     1
 10
0.0
 20
0.0
 30
0.0
  3
*D21
  1

  0
LINE
  5
5F5
330
3E1
100
AcDbEntity
  8
0
 62
     0
 48
0.3
370
    -2
100
AcDbLine
 10
4.766865370729001
 20
2.37122905098708
 30
0.0
 11
4.220749718359357
 21
2.37122905098708
 31
0.0
  0
LINE
  5
5F6
330
3E1
100
AcDbEntity
  8
0
 62
     0
 48
0.3
370
    -2
100
AcDbLine
 10
4.766865370729001
 20
1.621229050987079
 30
0.0
 11
4.220749718359356
 21
1.621229050987079
 31
0.0
  0
LINE
  5
5F7
330
3E1
100
AcDbEntity
  8
0
 62
     0
 48
0.3
370
    -2
100
AcDbLine
 10
4.400749718359357
 20
2.24622905098708
 30
0.0
 11
4.400749718359357
 21
2.148729050987079
 31
0.0
  0
LINE
  5
5F8
330
3E1
100
AcDbEntity
  8
0
 62
     0
 48
0.3
370
    -2
100
AcDbLine
 10
4.400749718359356
 20
1.746229050987079
 30
0.0
 11
4.400749718359356
 21
1.843729050987079
 31
0.0
  0
SOLID
  5
5F9
330
3E1
100
AcDbEntity
  8
0
 62
     0
 48
0.3
100
AcDbTrace
 10
4.379916385026024
 20
2.24622905098708
 30
0.0
 11
4.42158305169269
 21
2.24622905098708
 31
0.0
 12
4.400749718359357
 22
2.37122905098708
 32
0.0
 13
4.400749718359357
 23
2.37122905098708
 33
0.0
  0
SOLID
  5
5FA
330
3E1
100
AcDbEntity
  8
0
 62
     0
 48
0.3
100
AcDbTrace
 10
4.379916385026023
 20
1.746229050987079
 30
0.0
 11
4.421583051692689
 21
1.746229050987079
 31
0.0
 12
4.400749718359356
 22
1.621229050987079
 32
0.0
 13
4.400749718359356
 23
1.621229050987079
 33
0.0
  0
MTEXT
  5
5FB
330
3E1
100
AcDbEntity
  8
0
 62
     0
 48
0.3
100
AcDbMText
 10
4.400749718359356
 20
1.99622905098708
 30
0.0
 40
0.125
 41
0.0
 71
     5
 72
     1
  1
\A1;0.750
 73
     1
 44
1.0
  0
POINT
  5
5FC
330
3E1
100
AcDbEntity
  8
Defpoints
 62
     0
 48
0.3
100
AcDbPoint
 10
4.829365370729001
 20
2.37122905098708
 30
0.0
  0
POINT
  5
5FD
330
3E1
100
AcDbEntity
  8
Defpoints
 62
     0
 48
0.3
100
AcDbPoint
 10
4.829365370729001
 20
1.621229050987079
 30
0.0
  0
POINT
  5
5FE
330
3E1
100
AcDbEntity
  8
Defpoints
 62
     0
 48
0.3
100
AcDbPoint
 10
4.400749718359356
 20
1.621229050987079
 30
0.0
  0
ENDBLK
  5
3ED
330
3E1
100
AcDbEntity
  8
0
 48
0.3
100
AcDbBlockEnd
  0
BLOCK
  5
45A
330
44F
100
AcDbEntity
  8
0
 48
0.3
100
AcDbBlockBegin
  2
*D23
 70
     1
 10
0.0
 20
0.0
 30
0.0
  3
*D23
  1

  0
LINE
  5
5C8
330
44F
100
AcDbEntity
  8
0
 62
     0
 48
0.3
370
    -2
100
AcDbLine
 10
2.962774138182381
 20
3.68372905098708
 30
0.0
 11
2.962774138182381
 21
4.42063410173571
 31
0.0
  0
LINE
  5
5C9
330
44F
100
AcDbEntity
  8
0
 62
     0
 48
0.3
370
    -2
100
AcDbLine
 10
2.513774138182379
 20
3.44172905098708
 30
0.0
 11
2.513774138182379
 21
4.42063410173571
 31
0.0
  0
LINE
  5
5CA
330
44F
100
AcDbEntity
  8
0
 62
     0
 48
0.3
370
    -2
100
AcDbLine
 10
2.837774138182381
 20
4.24063410173571
 30
0.0
 11
2.638774138182379
 21
4.24063410173571
 31
0.0
  0
LINE
  5
5CB
330
44F
100
AcDbEntity
  8
0
 62
     0
 48
0.3
370
    -2
100
AcDbLine
 10
2.513774138182379
 20
4.24063410173571
 30
0.0
 11
2.388774138182379
 21
4.24063410173571
 31
0.0
  0
SOLID
  5
5CC
330
44F
100
AcDbEntity
  8
0
 62
     0
 48
0.3
100
AcDbTrace
 10
2.837774138182381
 20
4.261467435069043
 30
0.0
 11
2.837774138182381
 21
4.219800768402377
 31
0.0
 12
2.962774138182381
 22
4.24063410173571
 32
0.0
 13
2.962774138182381
 23
4.24063410173571
 33
0.0
  0
SOLID
  5
5CD
330
44F
100
AcDbEntity
  8
0
 62
     0
 48
0.3
100
AcDbTrace
 10
2.638774138182379
 20
4.261467435069043
 30
0.0
 11
2.638774138182379
 21
4.219800768402377
 31
0.0
 12
2.513774138182379
 22
4.24063410173571
 32
0.0
 13
2.513774138182379
 23
4.24063410173571
 33
0.0
  0
MTEXT
  5
5CE
330
44F
100
AcDbEntity
  8
0
 62
     0
 48
0.3
100
AcDbMText
 10
2.059190804849046
 20
4.24063410173571
 30
0.0
 40
0.125
 41
0.0
 71
     5
 72
     1
  1
\A1;0.449
 73
     1
 44
1.0
  0
POINT
  5
5CF
330
44F
100
AcDbEntity
  8
Defpoints
 62
     0
 48
0.3
100
AcDbPoint
 10
2.962774138182381
 20
3.62122905098708
 30
0.0
  0
POINT
  5
5D0
330
44F
100
AcDbEntity
  8
Defpoints
 62
     0
 48
0.3
100
AcDbPoint
 10
2.513774138182379
 20
3.37922905098708
 30
0.0
  0
POINT
  5
5D1
330
44F
100
AcDbEntity
  8
Defpoints
 62
     0
 48
0.3
100
AcDbPoint
 10
2.513774138182379
 20
4.24063410173571
 30
0.0
  0
ENDBLK
  5
45B
330
44F
100
AcDbEntity
  8
0
 48
0.3
100
AcDbBlockEnd
  0
BLOCK
  5
474
330
469
100
AcDbEntity
  8
0
 48
0.3
100
AcDbBlockBegin
  2
*D24
 70
     1
 10
0.0
 20
0.0
 30
0.0
  3
*D24
  1

  0
LINE
  5
5BE
330
469
100
AcDbEntity
  8
0
 62
     0
 48
0.3
370
    -2
100
AcDbLine
 10
2.962774138182381
 20
3.68372905098708
 30
0.0
 11
2.962774138182381
 21
4.124397198972995
 31
0.0
  0
LINE
  5
5BF
330
469
100
AcDbEntity
  8
0
 62
     0
 48
0.3
370
    -2
100
AcDbLine
 10
2.810774138182381
 20
3.44172905098708
 30
0.0
 11
2.810774138182381
 21
4.124397198972995
 31
0.0
  0
LINE
  5
5C0
330
469
100
AcDbEntity
  8
0
 62
     0
 48
0.3
370
    -2
100
AcDbLine
 10
3.087774138182381
 20
3.944397198972995
 30
0.0
 11
3.212774138182381
 21
3.944397198972995
 31
0.0
  0
LINE
  5
5C1
330
469
100
AcDbEntity
  8
0
 62
     0
 48
0.3
370
    -2
100
AcDbLine
 10
2.68577413818238
 20
3.944397198972995
 30
0.0
 11
2.34202413818238
 21
3.944397198972995
 31
0.0
  0
SOLID
  5
5C2
330
469
100
AcDbEntity
  8
0
 62
     0
 48
0.3
100
AcDbTrace
 10
3.087774138182381
 20
3.965230532306329
 30
0.0
 11
3.087774138182381
 21
3.923563865639662
 31
0.0
 12
2.962774138182381
 22
3.944397198972995
 32
0.0
 13
2.962774138182381
 23
3.944397198972995
 33
0.0
  0
SOLID
  5
5C3
330
469
100
AcDbEntity
  8
0
 62
     0
 48
0.3
100
AcDbTrace
 10
2.68577413818238
 20
3.965230532306329
 30
0.0
 11
2.68577413818238
 21
3.923563865639662
 31
0.0
 12
2.810774138182381
 22
3.944397198972995
 32
0.0
 13
2.810774138182381
 23
3.944397198972995
 33
0.0
  0
MTEXT
  5
5C4
330
469
100
AcDbEntity
  8
0
 62
     0
 48
0.3
100
AcDbMText
 10
2.033274138182381
 20
3.944397198972995
 30
0.0
 40
0.125
 41
0.0
 71
     5
 72
     1
  1
\A1;0.152
 73
     1
 44
1.0
  0
POINT
  5
5C5
330
469
100
AcDbEntity
  8
Defpoints
 62
     0
 48
0.3
100
AcDbPoint
 10
2.962774138182381
 20
3.62122905098708
 30
0.0
  0
POINT
  5
5C6
330
469
100
AcDbEntity
  8
Defpoints
 62
     0
 48
0.3
100
AcDbPoint
 10
2.810774138182381
 20
3.37922905098708
 30
0.0
  0
POINT
  5
5C7
330
469
100
AcDbEntity
  8
Defpoints
 62
     0
 48
0.3
100
AcDbPoint
 10
2.810774138182381
 20
3.944397198972995
 30
0.0
  0
ENDBLK
  5
475
330
469
100
AcDbEntity
  8
0
 48
0.3
100
AcDbBlockEnd
  0
BLOCK
  5
4B2
330
4A7
100
AcDbEntity
  8
0
 48
0.3
100
AcDbBlockBegin
  2
*D26
 70
     1
 10
0.0
 20
0.0
 30
0.0
  3
*D26
  1

  0
LINE
  5
576
330
4A7
100
AcDbEntity
  8
0
 62
     0
 48
0.3
370
    -2
100
AcDbLine
 10
3.025274138182381
 20
3.62122905098708
 30
0.0
 11
4.069632369687142
 21
3.62122905098708
 31
0.0
  0
LINE
  5
577
330
4A7
100
AcDbEntity
  8
0
 62
     0
 48
0.3
370
    -2
100
AcDbLine
 10
3.025274138182381
 20
2.87122905098708
 30
0.0
 11
4.069632369687142
 21
2.87122905098708
 31
0.0
  0
LINE
  5
578
330
4A7
100
AcDbEntity
  8
0
 62
     0
 48
0.3
370
    -2
100
AcDbLine
 10
3.889632369687142
 20
3.49622905098708
 30
0.0
 11
3.889632369687142
 21
3.39872905098708
 31
0.0
  0
LINE
  5
579
330
4A7
100
AcDbEntity
  8
0
 62
     0
 48
0.3
370
    -2
100
AcDbLine
 10
3.889632369687141
 20
2.99622905098708
 30
0.0
 11
3.889632369687142
 21
3.09372905098708
 31
0.0
  0
SOLID
  5
57A
330
4A7
100
AcDbEntity
  8
0
 62
     0
 48
0.3
100
AcDbTrace
 10
3.868799036353808
 20
3.49622905098708
 30
0.0
 11
3.910465703020475
 21
3.49622905098708
 31
0.0
 12
3.889632369687142
 22
3.62122905098708
 32
0.0
 13
3.889632369687142
 23
3.62122905098708
 33
0.0
  0
SOLID
  5
57B
330
4A7
100
AcDbEntity
  8
0
 62
     0
 48
0.3
100
AcDbTrace
 10
3.868799036353808
 20
2.99622905098708
 30
0.0
 11
3.910465703020475
 21
2.99622905098708
 31
0.0
 12
3.889632369687141
 22
2.87122905098708
 32
0.0
 13
3.889632369687141
 23
2.87122905098708
 33
0.0
  0
MTEXT
  5
57C
330
4A7
100
AcDbEntity
  8
0
 62
     0
 48
0.3
100
AcDbMText
 10
3.889632369687141
 20
3.24622905098708
 30
0.0
 40
0.125
 41
0.0
 71
     5
 72
     1
  1
\A1;0.750
 73
     1
 44
1.0
  0
POINT
  5
57D
330
4A7
100
AcDbEntity
  8
Defpoints
 62
     0
 48
0.3
100
AcDbPoint
 10
2.962774138182381
 20
3.62122905098708
 30
0.0
  0
POINT
  5
57E
330
4A7
100
AcDbEntity
  8
Defpoints
 62
     0
 48
0.3
100
AcDbPoint
 10
2.962774138182381
 20
2.87122905098708
 30
0.0
  0
POINT
  5
57F
330
4A7
100
AcDbEntity
  8
Defpoints
 62
     0
 48
0.3
100
AcDbPoint
 10
3.889632369687141
 20
2.87122905098708
 30
0.0
  0
ENDBLK
  5
4B3
330
4A7
100
AcDbEntity
  8
0
 48
0.3
100
AcDbBlockEnd
  0
ENDSEC
  0
SECTION
  2
ENTITIES
  0
VIEWPORT
  5
77
330
58
100
AcDbEntity
 67
     1
  8
0
100
AcDbViewport
 10
3.225062252214774
 20
2.41829965174361
 30
0.0
 40
19.75998611937204
 41
8.193580451222372
 68
     1
 69
     1
 12
3.225062252214774
 22
2.41829965174361
 13
0.0
 23
0.0
 14
0.5
 24
0.5
 15
0.5
 25
0.5
 16
0.0
 26
0.0
 36
1.0
 17
0.0
 27
0.0
 37
0.0
 42
50.0
 43
0.0
 44
0.0
 45
8.193580451222372
 50
0.0
 51
0.0
 72
   100
 90
    32800
  1

281
     0
 71
     1
 74
     0
110
0.0
120
0.0
130
0.0
111
1.0
121
0.0
131
0.0
112
0.0
122
1.0
132
0.0
 79
     0
146
0.0
  0
LWPOLYLINE
  5
86
330
58
100
AcDbEntity
 67
     1
  8
0
100
AcDbPolyline
 90
        4
 70
     1
 43
0.0
 10
-1.439262267973588
 20
6.396855050259421
 10
8.966538218833356
 20
6.396855050259421
 10
8.966538218833356
 20
-1.41285528304607
 10
-1.439262267973588
 20
-1.41285528304607
  0
LINE
  5
8A
330
58
100
AcDbEntity
 67
     1
  8
0
100
AcDbLine
 10
8.966538218833356
 20
-1.41285528304607
 30
0.0
 11
8.966538218833356
 21
-0.4128552830460707
 31
0.0
  0
LINE
  5
8B
330
58
100
AcDbEntity
 67
     1
  8
0
100
AcDbLine
 10
8.966538218833356
 20
-0.4128552830460707
 30
0.0
 11
6.466538218833355
 21
-0.4128552830460703
 31
0.0
  0
LINE
  5
8C
330
58
100
AcDbEntity
 67
     1
  8
0
100
AcDbLine
 10
6.466538218833355
 20
-0.4128552830460703
 30
0.0
 11
4.966538218833356
 21
-0.4128552830460701
 31
0.0
  0
LINE
  5
8D
330
58
100
AcDbEntity
 67
     1
  8
0
100
AcDbLine
 10
4.966538218833356
 20
-0.4128552830460701
 30
0.0
 11
4.966538218833356
 21
-1.41285528304607
 31
0.0
  0
LINE
  5
8E
330
58
100
AcDbEntity
 67
     1
  8
0
100
AcDbLine
 10
6.466538218833355
 20
-0.4128552830460703
 30
0.0
 11
6.466538218833355
 21
-1.404250623233159
 31
0.0
  0
MTEXT
  5
8F
330
58
100
AcDbEntity
 67
     1
  8
0
100
AcDbMText
 10
5.020648721258949
 20
-0.5532836662080878
 30
0.0
 40
0.1
 41
1.5
 71
     1
 72
     5
  1
  Tolerances\P.XXXX = +/- .001\P.XXX  = +/- .005\P.XX   = +/- .015
 73
     1
 44
1.0
  0
MTEXT
  5
AA
330
58
100
AcDbEntity
 67
     1
  8
0
 48
0.3
100
AcDbMText
 10
6.688767870543038
 20
-0.5779304272488833
 30
0.0
 40
0.1
 41
2.5
 71
     1
 72
     5
  1
G0704 Belt Drive \PTach Pickup Mount\PDaniel E. Kemp\P{\fArial|b0|i0|c0|p32;\H1.625x;©\fMS Shell Dlg|b0|i0|c0|p32;\H0.6538x; }08-01-2010
 73
     1
 44
1.0
  0
MTEXT
  5
AC
330
58
100
AcDbEntity
 67
     1
  8
0
 48
0.3
100
AcDbMText
 10
-0.8330378939457148
 20
-0.9104262006358537
 30
0.0
 40
0.1625
 41
9.997099999999999
 71
     1
 72
     5
  1
{\fArial|b0|i0|c0|p32;© Daniel E. Kemp 2010}
 73
     1
 44
1.0
  0
LINE
  5
150
102
{ACAD_REACTORS
330
1CB
330
2E1
102
}
330
58
100
AcDbEntity
 67
     1
  8
0
 48
0.3
100
AcDbLine
 10
1.627774138182379
 20
1.62122905098708
 30
0.0
 11
1.62777413818238
 21
3.62122905098708
 31
0.0
  0
LINE
  5
151
102
{ACAD_REACTORS
330
2BD
102
}
330
58
100
AcDbEntity
 67
     1
  8
0
 48
0.3
100
AcDbLine
 10
1.62777413818238
 20
3.62122905098708
 30
0.0
 11
2.962774138182381
 21
3.62122905098708
 31
0.0
  0
LINE
  5
152
102
{ACAD_REACTORS
330
467
330
481
330
4BF
102
}
330
58
100
AcDbEntity
 67
     1
  8
0
 48
0.3
100
AcDbLine
 10
2.962774138182381
 20
3.62122905098708
 30
0.0
 11
2.962774138182381
 21
2.87122905098708
 31
0.0
  0
LINE
  5
153
102
{ACAD_REACTORS
330
4BF
102
}
330
58
100
AcDbEntity
 67
     1
  8
0
 48
0.3
100
AcDbLine
 10
2.37777413818238
 20
2.87122905098708
 30
0.0
 11
2.962774138182381
 21
2.87122905098708
 31
0.0
  0
LINE
  5
154
330
58
100
AcDbEntity
 67
     1
  8
0
 48
0.3
100
AcDbLine
 10
2.37777413818238
 20
2.37122905098708
 30
0.0
 11
2.37777413818238
 21
2.87122905098708
 31
0.0
  0
LINE
  5
155
330
58
100
AcDbEntity
 67
     1
  8
0
 48
0.3
100
AcDbLine
 10
2.37777413818238
 20
2.37122905098708
 30
0.0
 11
1.627774138182379
 21
2.37122905098708
 31
0.0
  0
LINE
  5
156
102
{ACAD_REACTORS
330
1CB
102
}
330
58
100
AcDbEntity
 67
     1
  8
0
 48
0.3
100
AcDbLine
 10
2.37777413818238
 20
1.62122905098708
 30
0.0
 11
2.37777413818238
 21
2.37122905098708
 31
0.0
  0
LINE
  5
157
102
{ACAD_REACTORS
330
1CB
102
}
330
58
100
AcDbEntity
 67
     1
  8
0
 48
0.3
100
AcDbLine
 10
2.377774138182379
 20
1.62122905098708
 30
0.0
 11
1.627774138182379
 21
1.62122905098708
 31
0.0
  0
LINE
  5
161
330
58
100
AcDbEntity
 67
     1
  8
0
 48
0.3
100
AcDbLine
 10
1.62777413818238
 20
4.888450498957356
 30
0.0
 11
1.62777413818238
 21
5.513450498957356
 31
0.0
  0
LINE
  5
162
102
{ACAD_REACTORS
330
1E7
330
253
102
}
330
58
100
AcDbEntity
 67
     1
  8
0
 48
0.3
100
AcDbLine
 10
1.62777413818238
 20
5.513450498957356
 30
0.0
 11
2.12777413818238
 21
5.513450498957356
 31
0.0
  0
LINE
  5
165
330
58
100
AcDbEntity
 67
     1
  8
0
 48
0.3
100
AcDbLine
 10
1.62777413818238
 20
5.513450498957356
 30
0.0
 11
1.62777413818238
 21
5.325450498957356
 31
0.0
  0
LINE
  5
166
330
58
100
AcDbEntity
 67
     1
  8
0
 48
0.3
100
AcDbLine
 10
1.62777413818238
 20
5.325450498957356
 30
0.0
 11
2.977774138182379
 21
5.325450498957356
 31
0.0
  0
LINE
  5
168
102
{ACAD_REACTORS
330
1E7
330
203
102
}
330
58
100
AcDbEntity
 67
     1
  8
0
 48
0.3
100
AcDbLine
 10
2.37777413818238
 20
4.888450498957356
 30
0.0
 11
1.62777413818238
 21
4.888450498957356
 31
0.0
  0
LINE
  5
169
330
58
100
AcDbEntity
 67
     1
  8
0
 48
0.3
100
AcDbLine
 10
2.977774138182379
 20
5.325450498957356
 30
0.0
 11
2.977774138182379
 21
5.513450498957356
 31
0.0
  0
CIRCLE
  5
16C
102
{ACAD_REACTORS
330
203
330
253
330
37C
102
}
330
58
100
AcDbEntity
 67
     1
  8
0
 48
0.3
100
AcDbCircle
 10
2.00277413818238
 20
5.106950498957356
 30
0.0
 40
0.15625
  0
CIRCLE
  5
16D
102
{ACAD_REACTORS
330
392
102
}
330
58
100
AcDbEntity
 67
     1
  8
0
 48
0.3
100
AcDbCircle
 10
2.00277413818238
 20
5.106950498957356
 30
0.0
 40
0.1005
  0
LINE
  5
16F
102
{ACAD_REACTORS
330
3CA
102
}
330
58
100
AcDbEntity
 67
     1
  8
0
  6
HIDDENX2
 48
0.3
100
AcDbLine
 10
1.84652413818238
 20
2.37122905098708
 30
0.0
 11
1.84652413818238
 21
2.17122905098708
 31
0.0
  0
LINE
  5
170
102
{ACAD_REACTORS
330
3CA
102
}
330
58
100
AcDbEntity
 67
     1
  8
0
  6
HIDDENX2
 48
0.3
100
AcDbLine
 10
1.84652413818238
 20
2.17122905098708
 30
0.0
 11
2.15902413818238
 21
2.17122905098708
 31
0.0
  0
LINE
  5
171
330
58
100
AcDbEntity
 67
     1
  8
0
  6
HIDDENX2
 48
0.3
100
AcDbLine
 10
2.15902413818238
 20
2.17122905098708
 30
0.0
 11
2.15902413818238
 21
2.37122905098708
 31
0.0
  0
LINE
  5
173
330
58
100
AcDbEntity
 67
     1
  8
0
  6
HIDDENX2
 48
0.3
100
AcDbLine
 10
2.10327413818238
 20
2.17122905098708
 30
0.0
 11
2.10327413818238
 21
1.62122905098708
 31
0.0
  0
LINE
  5
175
330
58
100
AcDbEntity
 67
     1
  8
0
  6
HIDDENX2
 48
0.3
100
AcDbLine
 10
1.902274138182379
 20
2.17122905098708
 30
0.0
 11
1.902274138182379
 21
1.62122905098708
 31
0.0
  0
CIRCLE
  5
178
102
{ACAD_REACTORS
330
467
102
}
330
58
100
AcDbEntity
 67
     1
  8
0
 48
0.3
100
AcDbCircle
 10
2.513774138182379
 20
3.37922905098708
 30
0.0
 40
0.0685
  0
CIRCLE
  5
179
102
{ACAD_REACTORS
330
2BD
102
}
330
58
100
AcDbEntity
 67
     1
  8
0
 48
0.3
100
AcDbCircle
 10
2.810774138182381
 20
3.37922905098708
 30
0.0
 40
0.0685
  0
LINE
  5
17A
330
58
100
AcDbEntity
 67
     1
  8
0
 48
0.3
100
AcDbLine
 10
5.266365370728999
 20
3.62122905098708
 30
0.0
 11
5.454365370729
 21
3.62122905098708
 31
0.0
  0
LINE
  5
17B
102
{ACAD_REACTORS
330
33A
102
}
330
58
100
AcDbEntity
 67
     1
  8
0
 48
0.3
100
AcDbLine
 10
5.454365370729
 20
3.62122905098708
 30
0.0
 11
5.454365370729
 21
1.748854857879456
 31
0.0
  0
LINE
  5
17E
330
58
100
AcDbEntity
 67
     1
  8
0
 48
0.3
100
AcDbLine
 10
4.829365370729001
 20
2.37122905098708
 30
0.0
 11
5.266365370728999
 21
2.37122905098708
 31
0.0
  0
LINE
  5
17F
102
{ACAD_REACTORS
330
26D
330
33A
102
}
330
58
100
AcDbEntity
 67
     1
  8
0
 48
0.3
100
AcDbLine
 10
5.266365370728999
 20
2.37122905098708
 30
0.0
 11
5.266365370728999
 21
3.62122905098708
 31
0.0
  0
LINE
  5
180
102
{ACAD_REACTORS
330
26D
330
3F9
102
}
330
58
100
AcDbEntity
 67
     1
  8
0
 48
0.3
100
AcDbLine
 10
4.829365370729001
 20
2.37122905098708
 30
0.0
 11
4.829365370729001
 21
1.621229050987079
 31
0.0
  0
LINE
  5
181
330
58
100
AcDbEntity
 67
     1
  8
0
 48
0.3
100
AcDbLine
 10
4.829365370729001
 20
1.621229050987079
 30
0.0
 11
5.454365370729
 21
1.621229050987079
 31
0.0
  0
LINE
  5
182
330
58
100
AcDbEntity
 67
     1
  8
0
 48
0.3
100
AcDbLine
 10
5.454365370729
 20
1.621229050987079
 30
0.0
 11
5.454365370729
 21
1.748854857879456
 31
0.0
  0
LINE
  5
183
330
58
100
AcDbEntity
 67
     1
  8
0
 48
0.3
100
AcDbLine
 10
4.829365370729001
 20
2.37122905098708
 30
0.0
 11
4.891865370729001
 21
2.37122905098708
 31
0.0
  0
LINE
  5
18D
330
58
100
AcDbEntity
 67
     1
  8
0
  6
HIDDENX2
 48
0.3
100
AcDbLine
 10
4.891865370729001
 20
2.37122905098708
 30
0.0
 11
4.891865370729001
 21
2.17122905098708
 31
0.0
  0
LINE
  5
18E
330
58
100
AcDbEntity
 67
     1
  8
0
  6
HIDDENX2
 48
0.3
100
AcDbLine
 10
4.891865370729001
 20
2.17122905098708
 30
0.0
 11
5.204365370729001
 21
2.17122905098708
 31
0.0
  0
LINE
  5
18F
330
58
100
AcDbEntity
 67
     1
  8
0
  6
HIDDENX2
 48
0.3
100
AcDbLine
 10
5.204365370729001
 20
2.17122905098708
 30
0.0
 11
5.204365370729001
 21
2.37122905098708
 31
0.0
  0
LINE
  5
190
330
58
100
AcDbEntity
 67
     1
  8
0
  6
HIDDENX2
 48
0.3
100
AcDbLine
 10
4.947615370729
 20
2.17122905098708
 30
0.0
 11
4.947615370729
 21
1.62122905098708
 31
0.0
  0
LINE
  5
191
330
58
100
AcDbEntity
 67
     1
  8
0
  6
HIDDENX2
 48
0.3
100
AcDbLine
 10
5.148615370729
 20
2.17122905098708
 30
0.0
 11
5.148615370729
 21
1.62122905098708
 31
0.0
  0
LINE
  5
193
330
58
100
AcDbEntity
 67
     1
  8
0
  6
threads
 48
0.3
100
AcDbLine
 10
5.266365370728999
 20
3.447729050987081
 30
0.0
 11
5.454365370729
 21
3.447729050987081
 31
0.0
  0
LINE
  5
195
330
58
100
AcDbEntity
 67
     1
  8
0
  6
threads
 48
0.3
100
AcDbLine
 10
5.266365370728999
 20
3.310729050987081
 30
0.0
 11
5.454365370729
 21
3.310729050987081
 31
0.0
  0
LINE
  5
197
330
58
100
AcDbEntity
 67
     1
  8
0
 48
0.3
100
AcDbLine
 10
5.266365370728999
 20
2.87122905098708
 30
0.0
 11
5.454365370729
 21
2.87122905098708
 31
0.0
  0
DIMENSION
  5
1B2
102
{ACAD_XDICTIONARY
360
1C0
102
}
102
{ACAD_REACTORS
330
1CB
102
}
330
58
100
AcDbEntity
 67
     1
  8
0
 48
0.3
100
AcDbDimension
  2
*D5
 10
1.627774138182379
 20
1.022190583657422
 30
0.0
 11
2.00277413818238
 21
1.022190583657422
 31
0.0
 70
    32
 71
     5
 42
0.7500000000000009
  3
Standard
100
AcDbAlignedDimension
 13
2.37777413818238
 23
1.62122905098708
 33
0.0
 14
1.627774138182379
 24
1.62122905098708
 34
0.0
100
AcDbRotatedDimension
  0
DIMENSION
  5
1CC
102
{ACAD_XDICTIONARY
360
1DB
102
}
102
{ACAD_REACTORS
330
1E7
102
}
330
58
100
AcDbEntity
 67
     1
  8
0
 48
0.3
100
AcDbDimension
  2
*D6
 10
-0.030029350514318
 20
4.888450498957356
 30
0.0
 11
-0.0300293505143187
 21
5.263450498957356
 31
0.0
 70
   160
 71
     5
 42
0.625
  3
Standard
100
AcDbAlignedDimension
 13
1.62777413818238
 23
5.513450498957356
 33
0.0
 14
1.62777413818238
 24
4.888450498957356
 34
0.0
 50
90.0
100
AcDbRotatedDimension
  0
DIMENSION
  5
1E8
102
{ACAD_XDICTIONARY
360
1F7
102
}
102
{ACAD_REACTORS
330
203
102
}
330
58
100
AcDbEntity
 67
     1
  8
0
 48
0.3
100
AcDbDimension
  2
*D7
 10
1.297725806673462
 20
4.888450498957356
 30
0.0
 11
0.8639758066734611
 21
4.638450498957356
 31
0.0
 70
    32
 71
     5
 42
0.2185000000000015
  3
Standard
100
AcDbAlignedDimension
 13
2.00277413818238
 23
5.106950498957356
 33
0.0
 14
1.62777413818238
 24
4.888450498957356
 34
0.0
 50
90.0
100
AcDbRotatedDimension
  0
DIMENSION
  5
23A
102
{ACAD_XDICTIONARY
360
248
102
}
102
{ACAD_REACTORS
330
253
102
}
330
58
100
AcDbEntity
 67
     1
  8
0
 48
0.3
100
AcDbDimension
  2
*D10
 10
2.00277413818238
 20
5.930944917937084
 30
0.0
 11
2.582357471515714
 21
5.930944917937084
 31
0.0
 70
    32
 71
     5
 42
0.375
  3
Standard
100
AcDbAlignedDimension
 13
1.62777413818238
 23
5.513450498957356
 33
0.0
 14
2.00277413818238
 24
5.106950498957356
 34
0.0
100
AcDbRotatedDimension
  0
DIMENSION
  5
254
102
{ACAD_XDICTIONARY
360
262
102
}
102
{ACAD_REACTORS
330
26D
102
}
330
58
100
AcDbEntity
 67
     1
  8
0
 48
0.3
100
AcDbDimension
  2
*D11
 10
5.266365370728999
 20
4.463320352564998
 30
0.0
 11
5.720948704062333
 21
4.463320352564998
 31
0.0
 70
   160
 71
     5
 42
0.4369999999999985
  3
Standard
100
AcDbAlignedDimension
 13
4.829365370729001
 23
2.37122905098708
 33
0.0
 14
5.266365370728999
 24
2.37122905098708
 34
0.0
100
AcDbRotatedDimension
  0
DIMENSION
  5
2A2
102
{ACAD_XDICTIONARY
360
2B1
102
}
102
{ACAD_REACTORS
330
2BD
102
}
330
58
100
AcDbEntity
 67
     1
  8
0
 48
0.3
100
AcDbDimension
  2
*D14
 10
3.395349119522097
 20
3.37922905098708
 30
0.0
 11
3.395349119522096
 21
3.500229050987081
 31
0.0
 70
   160
 71
     5
 42
0.242
  3
Standard
100
AcDbAlignedDimension
 13
2.962774138182381
 23
3.62122905098708
 33
0.0
 14
2.810774138182381
 24
3.37922905098708
 34
0.0
 50
90.0
100
AcDbRotatedDimension
  0
DIMENSION
  5
2C8
102
{ACAD_XDICTIONARY
360
2D6
102
}
102
{ACAD_REACTORS
330
2E1
102
}
330
58
100
AcDbEntity
 67
     1
  8
0
 48
0.3
100
AcDbDimension
  2
*D15
 10
0.2920455758713134
 20
1.621229050987081
 30
0.0
 11
0.2920455758713132
 21
2.621229050987082
 31
0.0
 70
   160
 71
     5
 42
1.999999999999999
  3
Standard
100
AcDbAlignedDimension
 13
1.62777413818238
 23
3.62122905098708
 33
0.0
 14
1.627774138182379
 24
1.62122905098708
 34
0.0
 50
90.0
100
AcDbRotatedDimension
  0
DIMENSION
  5
321
102
{ACAD_XDICTIONARY
360
32F
102
}
102
{ACAD_REACTORS
330
33A
102
}
330
58
100
AcDbEntity
 67
     1
  8
0
 48
0.3
100
AcDbDimension
  2
*D16
 10
5.454365370729
 20
3.970597756268531
 30
0.0
 11
6.013115370729
 21
3.970597756268531
 31
0.0
 70
    32
 71
     5
 42
0.1880000000000006
  3
Standard
100
AcDbAlignedDimension
 13
5.266365370728999
 23
3.62122905098708
 33
0.0
 14
5.454365370729
 24
3.62122905098708
 34
0.0
100
AcDbRotatedDimension
  0
LEADER
  5
363
330
58
100
AcDbEntity
 67
     1
  8
0
 48
0.3
100
AcDbLeader
  3
Standard
 73
     0
 40
0.1000000000000001
 41
0.7000000000000001
 76
     3
 10
2.513774138182379
 20
3.37922905098708
 30
0.0
 10
2.856433457627698
 20
2.400712685159414
 30
0.0
 10
2.981433457627698
 20
2.400712685159414
 30
0.0
340
364
213
0.0
223
-0.0625
233
0.0
1001
ACAD
1000
DSTYLE
1002
{
1070
   147
1040
0.09
1070
    77
1070
     0
1002
}
  0
MTEXT
  5
364
102
{ACAD_REACTORS
330
363
102
}
330
58
100
AcDbEntity
 67
     1
  8
0
 48
0.3
100
AcDbMText
 10
3.071433457627698
 20
2.463212685159414
 30
0.0
 40
0.1
 41
0.0
 71
     1
 72
     1
  1
(2) 6-32
 73
     1
 44
1.0
  0
DIMENSION
  5
369
102
{ACAD_XDICTIONARY
360
374
102
}
102
{ACAD_REACTORS
330
37C
102
}
330
58
100
AcDbEntity
 67
     1
  8
0
 48
0.3
100
AcDbDimension
  2
*D17
 10
1.849731330703972
 20
5.138445920515529
 30
0.0
 11
2.729146243893277
 21
4.957466860657726
 31
0.0
 70
   163
 71
     5
 42
0.3125000000000004
  3
Standard
100
AcDbDiametricDimension
 15
2.155816945660788
 25
5.075455077399184
 35
0.0
 40
0.0
1001
ACAD
1000
DSTYLE
1002
{
1070
   140
1040
0.1
1070
   288
1070
     1
1002
}
  0
DIMENSION
  5
37D
102
{ACAD_XDICTIONARY
360
389
102
}
102
{ACAD_REACTORS
330
392
102
}
330
58
100
AcDbEntity
 67
     1
  8
0
 48
0.3
100
AcDbDimension
  2
*D18
 10
1.93733871284332
 20
5.183229297523512
 30
0.0
 11
2.887637743020738
 21
4.641796501039333
 31
0.0
 70
   163
 71
     5
 42
0.2010000000000001
  3
Standard
100
AcDbDiametricDimension
 15
2.068209563521441
 25
5.0306717003912
 35
0.0
 40
0.0
1001
ACAD
1000
DSTYLE
1002
{
1070
   140
1040
0.1
1070
   288
1070
     1
1002
}
  0
DIMENSION
  5
3AF
102
{ACAD_XDICTIONARY
360
3BE
102
}
102
{ACAD_REACTORS
330
3CA
102
}
330
58
100
AcDbEntity
 67
     1
  8
0
 48
0.3
100
AcDbDimension
  2
*D20
 10
0.8366418118889631
 20
2.371229050987081
 30
0.0
 11
1.270391811888962
 21
2.621229050987082
 31
0.0
 70
   160
 71
     5
 42
0.2000000000000002
  3
Standard
100
AcDbAlignedDimension
 13
1.84652413818238
 23
2.17122905098708
 33
0.0
 14
1.84652413818238
 24
2.37122905098708
 34
0.0
 50
90.0
100
AcDbRotatedDimension
  0
DIMENSION
  5
3E0
102
{ACAD_XDICTIONARY
360
3EE
102
}
102
{ACAD_REACTORS
330
3F9
102
}
330
58
100
AcDbEntity
 67
     1
  8
0
 48
0.3
100
AcDbDimension
  2
*D21
 10
4.400749718359356
 20
1.621229050987079
 30
0.0
 11
4.400749718359356
 21
1.99622905098708
 31
0.0
 70
    32
 71
     5
 42
0.7500000000000016
  3
Standard
100
AcDbAlignedDimension
 13
4.829365370729001
 23
2.37122905098708
 33
0.0
 14
4.829365370729001
 24
1.621229050987079
 34
0.0
 50
90.0
100
AcDbRotatedDimension
  0
DIMENSION
  5
44E
102
{ACAD_XDICTIONARY
360
45C
102
}
102
{ACAD_REACTORS
330
467
102
}
330
58
100
AcDbEntity
 67
     1
  8
0
 48
0.3
100
AcDbDimension
  2
*D23
 10
2.513774138182379
 20
4.24063410173571
 30
0.0
 11
2.059190804849046
 21
4.24063410173571
 31
0.0
 70
    32
 71
     5
 42
0.4490000000000012
  3
Standard
100
AcDbAlignedDimension
 13
2.962774138182381
 23
3.62122905098708
 33
0.0
 14
2.513774138182379
 24
3.37922905098708
 34
0.0
100
AcDbRotatedDimension
  0
DIMENSION
  5
468
102
{ACAD_XDICTIONARY
360
476
102
}
102
{ACAD_REACTORS
330
481
102
}
330
58
100
AcDbEntity
 67
     1
  8
0
 48
0.3
100
AcDbDimension
  2
*D24
 10
2.810774138182381
 20
3.944397198972995
 30
0.0
 11
2.033274138182381
 21
3.944397198972995
 31
0.0
 70
   160
 71
     5
 42
0.1520000000000001
  3
Standard
100
AcDbAlignedDimension
 13
2.962774138182381
 23
3.62122905098708
 33
0.0
 14
2.810774138182381
 24
3.37922905098708
 34
0.0
100
AcDbRotatedDimension
  0
DIMENSION
  5
4A6
102
{ACAD_XDICTIONARY
360
4B4
102
}
102
{ACAD_REACTORS
330
4BF
102
}
330
58
100
AcDbEntity
 67
     1
  8
0
 48
0.3
100
AcDbDimension
  2
*D26
 10
3.889632369687141
 20
2.87122905098708
 30
0.0
 11
3.889632369687141
 21
3.24622905098708
 31
0.0
 70
    32
 71
     5
 42
0.75
  3
Standard
100
AcDbAlignedDimension
 13
2.962774138182381
 23
3.62122905098708
 33
0.0
 14
2.962774138182381
 24
2.87122905098708
 34
0.0
 50
90.0
100
AcDbRotatedDimension
  0
LINE
  5
4C6
330
58
100
AcDbEntity
 67
     1
  8
0
 48
0.3
100
AcDbLine
 10
2.37777413818238
 20
4.888450498957356
 30
0.0
 11
2.37777413818238
 21
5.263450498957356
 31
0.0
  0
LINE
  5
4C7
330
58
100
AcDbEntity
 67
     1
  8
0
  6
HIDDENX2
 48
0.3
100
AcDbLine
 10
2.37777413818238
 20
5.263450498957356
 30
0.0
 11
2.12777413818238
 21
5.513450498957356
 31
0.0
  0
LINE
  5
4C8
330
58
100
AcDbEntity
 67
     1
  8
0
 48
0.3
100
AcDbLine
 10
2.977774138182379
 20
5.513450498957356
 30
0.0
 11
2.12777413818238
 21
5.513450498957356
 31
0.0
  0
CIRCLE
  5
627
330
58
100
AcDbEntity
 67
     1
  8
0
 48
0.3
100
AcDbCircle
 10
2.002774138182378
 20
0.2876298356448856
 30
0.0
 40
0.1005
  0
CIRCLE
  5
62D
330
58
100
AcDbEntity
 67
     1
  8
0
 48
0.3
100
AcDbCircle
 10
2.002774138182378
 20
0.2876298356448856
 30
0.0
 40
0.1005
  0
LINE
  5
62E
330
58
100
AcDbEntity
 67
     1
  8
0
 48
0.3
100
AcDbLine
 10
1.627774138182379
 20
0.5061298356448863
 30
0.0
 11
1.627774138182379
 21
-0.1188701643551138
 31
0.0
  0
LINE
  5
62F
330
58
100
AcDbEntity
 67
     1
  8
0
 48
0.3
100
AcDbLine
 10
2.377774138182378
 20
0.5061298356448863
 30
0.0
 11
1.627774138182379
 21
0.5061298356448863
 31
0.0
  0
LINE
  5
631
330
58
100
AcDbEntity
 67
     1
  8
0
 48
0.3
100
AcDbLine
 10
1.627774138182379
 20
-0.1188701643551138
 30
0.0
 11
2.127774138182378
 21
-0.1188701643551138
 31
0.0
  0
LINE
  5
632
330
58
100
AcDbEntity
 67
     1
  8
0
 48
0.3
100
AcDbLine
 10
2.977774138182377
 20
-0.1188701643551138
 30
0.0
 11
2.127774138182378
 21
-0.1188701643551138
 31
0.0
  0
LINE
  5
633
330
58
100
AcDbEntity
 67
     1
  8
0
 48
0.3
100
AcDbLine
 10
2.977774138182377
 20
0.069129835644886
 30
0.0
 11
2.977774138182377
 21
-0.1188701643551138
 31
0.0
  0
LINE
  5
634
102
{ACAD_REACTORS
330
63B
102
}
330
58
100
AcDbEntity
 67
     1
  8
0
 48
0.3
100
AcDbLine
 10
2.377774138182378
 20
0.5061298356448863
 30
0.0
 11
2.377774138182378
 21
0.1311298356448862
 31
0.0
  0
LINE
  5
635
330
58
100
AcDbEntity
 67
     1
  8
0
 48
0.3
100
AcDbLine
 10
2.377774138182378
 20
0.1311298356448862
 30
0.0
 11
2.127774138182378
 21
-0.1188701643551138
 31
0.0
  0
LINE
  5
637
330
58
100
AcDbEntity
 67
     1
  8
0
 48
0.3
100
AcDbLine
 10
2.977774138182377
 20
0.069129835644886
 30
0.0
 11
2.315774138182378
 21
0.0691298356448861
 31
0.0
  0
LEADER
  5
638
102
{ACAD_XDICTIONARY
360
63A
102
}
102
{ACAD_REACTORS
330
63B
102
}
330
58
100
AcDbEntity
 67
     1
  8
0
 48
0.3
100
AcDbLeader
  3
Standard
 73
     0
 40
0.1000000000000001
 41
2.883333333333334
 76
     3
 10
2.377774138182378
 20
0.1311298356448862
 30
0.0
 10
3.048616572659405
 20
0.4810230768528144
 30
0.0
 10
3.300333448638689
 20
0.4810230768528144
 30
0.0
340
639
213
0.0
223
-0.0625
233
0.0
1001
ACAD
1000
DSTYLE
1002
{
1070
   147
1040
0.09
1070
    77
1070
     0
1002
}
  0
MTEXT
  5
639
102
{ACAD_REACTORS
330
638
102
}
330
58
100
AcDbEntity
 67
     1
  8
0
 48
0.3
100
AcDbMText
 10
3.390333448638688
 20
0.5435230768528144
 30
0.0
 40
0.1
 41
0.0
 71
     1
 72
     1
  1
.250 chamfer for belt clearance
 73
     1
 44
1.0
  0
LINE
  5
63C
330
58
100
AcDbEntity
 67
     1
  8
0
  6
HIDDENX2
 48
0.3
100
AcDbLine
 10
2.37777413818238
 20
2.87122905098708
 30
0.0
 11
2.127774138182378
 21
2.87122905098708
 31
0.0
  0
LINE
  5
63D
330
58
100
AcDbEntity
 67
     1
  8
0
  6
HIDDENX2
 48
0.3
100
AcDbLine
 10
2.127774138182378
 20
2.87122905098708
 30
0.0
 11
2.127774138182378
 21
1.62122905098708
 31
0.0
  0
ENDSEC
  0
SECTION
  2
OBJECTS
  0
DICTIONARY
  5
C
330
0
100
AcDbDictionary
281
     1
  3
ACAD_GROUP
350
D
  3
ACAD_LAYOUT
350
1A
  3
ACAD_MLINESTYLE
350
17
  3
ACAD_PLOTSETTINGS
350
19
  3
ACAD_PLOTSTYLENAME
350
E
  3
AcadDim
350
368
  3
AcDbVariableDictionary
350
66
  0
DICTIONARY
  5
1C0
330
1B2
100
AcDbDictionary
280
     1
281
     1
  3
ACAD_DIMASSOC
360
1CB
  0
DICTIONARY
  5
1DB
330
1CC
100
AcDbDictionary
280
     1
281
     1
  3
ACAD_DIMASSOC
360
1E7
  0
DICTIONARY
  5
1F7
330
1E8
100
AcDbDictionary
280
     1
281
     1
  3
ACAD_DIMASSOC
360
203
  0
DICTIONARY
  5
248
330
23A
100
AcDbDictionary
280
     1
281
     1
  3
ACAD_DIMASSOC
360
253
  0
DICTIONARY
  5
262
330
254
100
AcDbDictionary
280
     1
281
     1
  3
ACAD_DIMASSOC
360
26D
  0
DICTIONARY
  5
2B1
330
2A2
100
AcDbDictionary
280
     1
281
     1
  3
ACAD_DIMASSOC
360
2BD
  0
DICTIONARY
  5
2D6
330
2C8
100
AcDbDictionary
280
     1
281
     1
  3
ACAD_DIMASSOC
360
2E1
  0
DICTIONARY
  5
32F
330
321
100
AcDbDictionary
280
     1
281
     1
  3
ACAD_DIMASSOC
360
33A
  0
DICTIONARY
  5
374
330
369
100
AcDbDictionary
280
     1
281
     1
  3
ACAD_DIMASSOC
360
37C
  0
DICTIONARY
  5
389
330
37D
100
AcDbDictionary
280
     1
281
     1
  3
ACAD_DIMASSOC
360
392
  0
DICTIONARY
  5
3BE
330
3AF
100
AcDbDictionary
280
     1
281
     1
  3
ACAD_DIMASSOC
360
3CA
  0
DICTIONARY
  5
3EE
330
3E0
100
AcDbDictionary
280
     1
281
     1
  3
ACAD_DIMASSOC
360
3F9
  0
DICTIONARY
  5
45C
330
44E
100
AcDbDictionary
280
     1
281
     1
  3
ACAD_DIMASSOC
360
467
  0
DICTIONARY
  5
476
330
468
100
AcDbDictionary
280
     1
281
     1
  3
ACAD_DIMASSOC
360
481
  0
DICTIONARY
  5
4B4
330
4A6
100
AcDbDictionary
280
     1
281
     1
  3
ACAD_DIMASSOC
360
4BF
  0
DICTIONARY
  5
63A
330
638
100
AcDbDictionary
280
     1
281
     1
  3
ACAD_DIMASSOC
360
63B
  0
DICTIONARY
  5
D
102
{ACAD_REACTORS
330
C
102
}
330
C
100
AcDbDictionary
281
     1
  0
DICTIONARY
  5
1A
102
{ACAD_REACTORS
330
C
102
}
330
C
100
AcDbDictionary
281
     1
  3
Layout1
350
59
  3
Layout2
350
5E
  3
Model
350
22
  0
DICTIONARY
  5
17
102
{ACAD_REACTORS
330
C
102
}
330
C
100
AcDbDictionary
281
     1
  3
Standard
350
18
  0
DICTIONARY
  5
19
102
{ACAD_REACTORS
330
C
102
}
330
C
100
AcDbDictionary
281
     1
  0
ACDBDICTIONARYWDFLT
  5
E
102
{ACAD_REACTORS
330
C
102
}
330
C
100
AcDbDictionary
281
     1
  3
Normal
350
F
100
AcDbDictionaryWithDefault
340
F
  0
XRECORD
  5
368
102
{ACAD_REACTORS
330
C
102
}
330
C
100
AcDbXrecord
280
     1
 90
   990106
  3

 60
     0
 61
     0
 62
     1
 63
     3
 64
     0
 65
     0
 66
     0
 67
     3
 68
     1
 69
     0
 70
     0
 71
     0
 72
     0
 40
0.0
170
     0
340
639
  0
DICTIONARY
  5
66
102
{ACAD_REACTORS
330
C
102
}
330
C
100
AcDbDictionary
281
     1
  3
DIMASSOC
350
67
  3
HIDETEXT
350
6B
  0
DIMASSOC
  5
1CB
102
{ACAD_REACTORS
330
1C0
102
}
330
1C0
100
AcDbDimAssoc
330
1B2
 90
        3
 70
     0
 71
     0
  1
AcDbOsnapPointRef
 72
     6
331
157
 73
     2
 91
        0
 40
-0.0000000000000012
 10
2.37777413818238
 20
1.62122905098708
 30
0.0
332
156
 74
     2
 92
        0
 75
     0
  1
AcDbOsnapPointRef
 72
    13
331
150
 73
     2
 91
        0
 40
0.0
 10
1.627774138182379
 20
1.62122905098708
 30
0.0
 75
     0
  0
DIMASSOC
  5
1E7
102
{ACAD_REACTORS
330
1DB
102
}
330
1DB
100
AcDbDimAssoc
330
1CC
 90
        3
 70
     0
 71
     0
  1
AcDbOsnapPointRef
 72
    13
331
162
 73
     2
 91
        0
 40
0.0
 10
1.62777413818238
 20
5.513450498957356
 30
0.0
 75
     0
  1
AcDbOsnapPointRef
 72
     1
331
168
 73
     2
 91
        0
 40
1.0
 10
1.62777413818238
 20
4.888450498957356
 30
0.0
 75
     0
  0
DIMASSOC
  5
203
102
{ACAD_REACTORS
330
1F7
102
}
330
1F7
100
AcDbDimAssoc
330
1E8
 90
        3
 70
     0
 71
     0
  1
AcDbOsnapPointRef
 72
     3
331
16C
 73
     2
 91
        0
 40
0.0
 10
2.00277413818238
 20
5.106950498957356
 30
0.0
 75
     0
  1
AcDbOsnapPointRef
 72
     1
331
168
 73
     2
 91
        0
 40
1.0
 10
1.62777413818238
 20
4.888450498957356
 30
0.0
 75
     0
  0
DIMASSOC
  5
253
102
{ACAD_REACTORS
330
248
102
}
330
248
100
AcDbDimAssoc
330
23A
 90
        3
 70
     0
 71
     0
  1
AcDbOsnapPointRef
 72
    13
331
162
 73
     2
 91
        0
 40
0.0
 10
1.62777413818238
 20
5.513450498957356
 30
0.0
 75
     0
  1
AcDbOsnapPointRef
 72
     3
331
16C
 73
     2
 91
        0
 40
0.0
 10
2.00277413818238
 20
5.106950498957356
 30
0.0
 75
     0
  0
DIMASSOC
  5
26D
102
{ACAD_REACTORS
330
262
102
}
330
262
100
AcDbDimAssoc
330
254
 90
        3
 70
     0
 71
     0
  1
AcDbOsnapPointRef
 72
    13
331
180
 73
     2
 91
        0
 40
0.0
 10
4.829365370729001
 20
2.37122905098708
 30
0.0
 75
     0
  1
AcDbOsnapPointRef
 72
    13
331
17F
 73
     2
 91
        0
 40
0.0
 10
5.266365370728999
 20
2.37122905098708
 30
0.0
 75
     0
  0
DIMASSOC
  5
2BD
102
{ACAD_REACTORS
330
2B1
102
}
330
2B1
100
AcDbDimAssoc
330
2A2
 90
        3
 70
     0
 71
     0
  1
AcDbOsnapPointRef
 72
     1
331
151
 73
     2
 91
        0
 40
1.0
 10
2.962774138182381
 20
3.62122905098708
 30
0.0
 75
     0
  1
AcDbOsnapPointRef
 72
     3
331
179
 73
     2
 91
        0
 40
0.0
 10
2.810774138182381
 20
3.37922905098708
 30
0.0
 75
     0
  0
DIMASSOC
  5
2E1
102
{ACAD_REACTORS
330
2D6
102
}
330
2D6
100
AcDbDimAssoc
330
2C8
 90
        3
 70
     0
 71
     0
  1
AcDbOsnapPointRef
 72
     1
331
150
 73
     2
 91
        0
 40
1.0
 10
1.62777413818238
 20
3.62122905098708
 30
0.0
 75
     0
  1
AcDbOsnapPointRef
 72
    13
331
150
 73
     2
 91
        0
 40
0.0
 10
1.627774138182379
 20
1.62122905098708
 30
0.0
 75
     0
  0
DIMASSOC
  5
33A
102
{ACAD_REACTORS
330
32F
102
}
330
32F
100
AcDbDimAssoc
330
321
 90
        3
 70
     0
 71
     0
  1
AcDbOsnapPointRef
 72
     1
331
17F
 73
     2
 91
        0
 40
1.0
 10
5.266365370728999
 20
3.62122905098708
 30
0.0
 75
     0
  1
AcDbOsnapPointRef
 72
    13
331
17B
 73
     2
 91
        0
 40
0.0
 10
5.454365370729
 20
3.62122905098708
 30
0.0
 75
     0
  0
DIMASSOC
  5
37C
102
{ACAD_REACTORS
330
374
102
}
330
374
100
AcDbDimAssoc
330
369
 90
        2
 70
     0
 71
     0
  1
AcDbOsnapPointRef
 72
     3
331
16C
 73
     2
 91
        0
 40
0.0
 10
2.00277413818238
 20
5.106950498957356
 30
0.0
 75
     0
  0
DIMASSOC
  5
392
102
{ACAD_REACTORS
330
389
102
}
330
389
100
AcDbDimAssoc
330
37D
 90
        2
 70
     0
 71
     0
  1
AcDbOsnapPointRef
 72
     3
331
16D
 73
     2
 91
        0
 40
0.0
 10
2.00277413818238
 20
5.106950498957356
 30
0.0
 75
     0
  0
DIMASSOC
  5
3CA
102
{ACAD_REACTORS
330
3BE
102
}
330
3BE
100
AcDbDimAssoc
330
3AF
 90
        3
 70
     0
 71
     0
  1
AcDbOsnapPointRef
 72
    13
331
170
 73
     2
 91
        0
 40
0.0
 10
1.84652413818238
 20
2.17122905098708
 30
0.0
 75
     0
  1
AcDbOsnapPointRef
 72
    13
331
16F
 73
     2
 91
        0
 40
0.0
 10
1.84652413818238
 20
2.37122905098708
 30
0.0
 75
     0
  0
DIMASSOC
  5
3F9
102
{ACAD_REACTORS
330
3EE
102
}
330
3EE
100
AcDbDimAssoc
330
3E0
 90
        1
 70
     0
 71
     0
  1
AcDbOsnapPointRef
 72
    13
331
180
 73
     2
 91
        0
 40
0.0
 10
4.829365370729001
 20
2.37122905098708
 30
0.0
 75
     0
  0
DIMASSOC
  5
467
102
{ACAD_REACTORS
330
45C
102
}
330
45C
100
AcDbDimAssoc
330
44E
 90
        3
 70
     0
 71
     0
  1
AcDbOsnapPointRef
 72
    13
331
152
 73
     2
 91
        0
 40
0.0
 10
2.962774138182381
 20
3.62122905098708
 30
0.0
 75
     0
  1
AcDbOsnapPointRef
 72
     3
331
178
 73
     2
 91
        0
 40
0.0
 10
2.513774138182379
 20
3.37922905098708
 30
0.0
 75
     0
  0
DIMASSOC
  5
481
102
{ACAD_REACTORS
330
476
102
}
330
476
100
AcDbDimAssoc
330
468
 90
        1
 70
     0
 71
     0
  1
AcDbOsnapPointRef
 72
    13
331
152
 73
     2
 91
        0
 40
0.0
 10
2.962774138182381
 20
3.62122905098708
 30
0.0
 75
     0
  0
DIMASSOC
  5
4BF
102
{ACAD_REACTORS
330
4B4
102
}
330
4B4
100
AcDbDimAssoc
330
4A6
 90
        3
 70
     0
 71
     0
  1
AcDbOsnapPointRef
 72
    13
331
152
 73
     2
 91
        0
 40
0.0
 10
2.962774138182381
 20
3.62122905098708
 30
0.0
 75
     0
  1
AcDbOsnapPointRef
 72
     1
331
153
 73
     2
 91
        0
 40
1.0
 10
2.962774138182381
 20
2.87122905098708
 30
0.0
 75
     0
  0
DIMASSOC
  5
63B
102
{ACAD_REACTORS
330
63A
102
}
330
63A
100
AcDbDimAssoc
330
638
 90
        1
 70
     0
 71
     0
  1
AcDbOsnapPointRef
 72
     1
331
634
 73
     2
 91
        0
 40
1.0
 10
2.377774138182378
 20
0.1311298356448862
 30
0.0
 75
     0
  0
LAYOUT
  5
59
102
{ACAD_REACTORS
330
1A
102
}
330
1A
100
AcDbPlotSettings
  1

  2
none_device
  4
Letter_(8.50_x_11.00_Inches)
  6

 40
6.349999904632567
 41
6.349999904632567
 42
6.350006103515625
 43
6.350006103515625
 44
215.8999938964842
 45
279.3999938964843
 46
38.3032
 47
38.15079999999999
 48
0.0
 49
0.0
140
0.0
141
0.0
142
1.0
143
1.0
 70
   688
 72
     0
 73
     1
 74
     5
  7

 75
    16
147
1.0
148
0.0
149
0.0
100
AcDbLayout
  1
Layout1
 70
     1
 71
     1
 10
-1.75200024029589
 20
-1.757999996245375
 11
9.247999519408216
 21
6.74199976345873
 12
0.0
 22
0.0
 32
0.0
 14
-1.439262267973588
 24
-1.41285528304607
 34
0.0
 15
8.966538218833356
 25
6.428113065922999
 35
0.0
146
0.0
 13
0.0
 23
0.0
 33
0.0
 16
1.0
 26
0.0
 36
0.0
 17
0.0
 27
1.0
 37
0.0
 76
     0
330
58
331
77
  0
LAYOUT
  5
5E
102
{ACAD_REACTORS
330
1A
102
}
330
1A
100
AcDbPlotSettings
  1

  2
None
  4

  6

 40
0.0
 41
0.0
 42
0.0
 43
0.0
 44
0.0
 45
0.0
 46
0.0
 47
0.0
 48
0.0
 49
0.0
140
0.0
141
0.0
142
1.0
143
1.0
 70
   688
 72
     0
 73
     0
 74
     5
  7

 75
    16
147
1.0
148
0.0
149
0.0
100
AcDbLayout
  1
Layout2
 70
     1
 71
     2
 10
0.0
 20
0.0
 11
12.0
 21
9.0
 12
0.0
 22
0.0
 32
0.0
 14
0.0
 24
0.0
 34
0.0
 15
0.0
 25
0.0
 35
0.0
146
0.0
 13
0.0
 23
0.0
 33
0.0
 16
1.0
 26
0.0
 36
0.0
 17
0.0
 27
1.0
 37
0.0
 76
     0
330
5D
  0
LAYOUT
  5
22
102
{ACAD_REACTORS
330
1A
102
}
330
1A
100
AcDbPlotSettings
  1

  2
none_device
  4
ANSI_A_(8.50_x_11.00_Inches)
  6

 40
6.349999904632567
 41
19.04999923706053
 42
6.350006103515625
 43
19.04998779296875
 44
215.8999938964842
 45
279.3999938964843
 46
0.0
 47
0.0
 48
0.0
 49
0.0
140
0.0
141
0.0
142
1.0
143
2.584895464708373
 70
 11952
 72
     0
 73
     1
 74
     0
  7

 75
     0
147
0.3868628397755418
148
0.0
149
0.0
100
AcDbLayout
  1
Model
 70
     1
 71
     0
 10
0.0
 20
0.0
 11
12.0
 21
9.0
 12
0.0
 22
0.0
 32
0.0
 14
0.0
 24
0.0
 34
0.0
 15
0.0
 25
0.0
 35
0.0
146
0.0
 13
0.0
 23
0.0
 33
0.0
 16
1.0
 26
0.0
 36
0.0
 17
0.0
 27
1.0
 37
0.0
 76
     0
330
1F
  0
MLINESTYLE
  5
18
102
{ACAD_REACTORS
330
17
102
}
330
17
100
AcDbMlineStyle
  2
STANDARD
 70
     0
  3

 62
   256
 51
90.0
 52
90.0
 71
     2
 49
0.5
 62
   256
  6
BYLAYER
 49
-0.5
 62
   256
  6
BYLAYER
  0
ACDBPLACEHOLDER
  5
F
102
{ACAD_REACTORS
330
E
102
}
330
E
  0
DICTIONARYVAR
  5
67
102
{ACAD_REACTORS
330
66
102
}
330
66
100
DictionaryVariables
280
     0
  1
2
  0
DICTIONARYVAR
  5
6B
102
{ACAD_REACTORS
330
66
102
}
330
66
100
DictionaryVariables
280
     0
  1
1
  0
ENDSEC
  0
EOF
